<?xml version="1.0" standalone="no"?>
<!DOCTYPE svg PUBLIC "-//W3C//DTD SVG 1.1//EN" "http://www.w3.org/Graphics/SVG/1.1/DTD/svg11.dtd" >
<svg xmlns="http://www.w3.org/2000/svg">
<metadata></metadata>
<defs>
<font id="exo_2medium_italic" horiz-adv-x="1175" >
<font-face units-per-em="2048" ascent="1638" descent="-410" />
<missing-glyph horiz-adv-x="454" />
<glyph horiz-adv-x="0" />
<glyph unicode="&#xd;" horiz-adv-x="681" />
<glyph unicode=" "  horiz-adv-x="454" />
<glyph unicode="&#x09;" horiz-adv-x="454" />
<glyph unicode="&#xa0;" horiz-adv-x="454" />
<glyph unicode="!" horiz-adv-x="563" d="M109 76l18 110q6 68 76 68h51q78 0 65 -76l-14 -108q-6 -70 -76 -70h-51q-78 0 -69 76zM180 436l33 375l86 612h197l-88 -612l-70 -375h-158z" />
<glyph unicode="&#x22;" horiz-adv-x="729" d="M197 971l51 442h160l-76 -442h-135zM498 971l51 442h160l-74 -442h-137z" />
<glyph unicode="#" horiz-adv-x="1404" d="M57 430l41 125h238l110 354h-237l43 125h233l119 379h156l-119 -379h358l119 379h156l-119 -379h229l-43 -125h-225l-110 -354h225l-43 -125h-223l-136 -430h-155l135 430h-358l-136 -430h-155l135 430h-238zM492 555h358l111 354h-359z" />
<glyph unicode="$" horiz-adv-x="1157" d="M53 16l27 152q115 -4 225.5 -7t126.5 -3l105 475l-129 45q-145 53 -197.5 148.5t-32.5 250.5q16 117 55 190.5t109 109.5t145.5 48.5t196.5 12.5h43l43 196h94l-43 -200q160 -10 289 -41l-23 -148q-197 8 -305 8l-102 -462l108 -39q156 -55 206 -146.5t28 -255.5 q-31 -227 -145.5 -301t-384.5 -74h-5l-53 -231h-94l53 233q-190 8 -340 39zM383 1057q-12 -100 13.5 -137t121.5 -72l76 -27l94 434h-4q-70 0 -101.5 -1t-74.5 -10t-61.5 -29.5t-37 -59.5t-26.5 -98zM526 158q156 4 215.5 44t75.5 169q12 100 -14.5 138t-118.5 71l-59 22z " />
<glyph unicode="%" horiz-adv-x="1837" d="M145 1028q33 227 116 319.5t261 92.5q190 0 255 -98.5t32 -329.5q-33 -227 -117 -319.5t-264 -92.5q-186 0 -249.5 98.5t-33.5 329.5zM295 1012q-23 -166 3 -227.5t124 -61.5q121 0 167 64.5t70 240.5q25 164 -2 226.5t-129 62.5q-117 0 -163 -64.5t-70 -240.5zM303 0 l1102 1413h154l-1102 -1413h-154zM1059 406q31 227 114 319t261 92q190 0 254.5 -98t31.5 -328q-33 -227 -116.5 -319t-264.5 -92q-186 0 -249.5 98t-30.5 328zM1206 391q-23 -166 4 -228.5t125 -62.5q119 0 165 64.5t71 241.5q25 164 -2 226t-129 62q-117 0 -163 -64.5 t-71 -238.5z" />
<glyph unicode="&#x26;" horiz-adv-x="1529" d="M86 367q41 344 340 362l2 10q-246 18 -195 336q37 217 162 289t379 72q174 0 352 -45l-34 -152q-121 27 -310 27q-182 0 -253.5 -44t-94.5 -190q-20 -131 28 -177t197 -46h428q4 80 5 256h180q2 -123 -4 -256h213l-23 -156h-207q-31 -221 -123 -368q-190 -305 -641 -308 q-238 -2 -332 89.5t-69 300.5zM303 387q-20 -133 24 -182t183 -49q307 0 453 204q79 111 108 293h-432q-164 0 -237.5 -56t-98.5 -210z" />
<glyph unicode="'" horiz-adv-x="428" d="M197 971l51 442h160l-76 -442h-135z" />
<glyph unicode="(" horiz-adv-x="731" d="M109 647q55 397 218.5 633t458.5 340l23 -96q-213 -96 -336 -312.5t-172 -578.5q-49 -344 9.5 -562t240.5 -319l-27 -88q-526 207 -415 983z" />
<glyph unicode=")" horiz-adv-x="731" d="M-66 -244q410 197 510 893q49 350 -10 567.5t-241 311.5l26 88q268 -104 371.5 -346t46.5 -639q-57 -395 -220 -631t-460 -340z" />
<glyph unicode="*" horiz-adv-x="917" d="M172 1126l47 109l240 -94l-8 -51l-29 -33zM240 821l245 262l29 332h119l-68 -332l174 -264l-98 -69l-121 254l-190 -252zM610 1090v51l256 94l23 -119l-260 -59z" />
<glyph unicode="+" horiz-adv-x="1120" d="M98 539l23 147h375l51 358h151l-51 -358h377l-20 -147h-377l-49 -357h-152l51 357h-379z" />
<glyph unicode="," horiz-adv-x="473" d="M49 -246q51 160 68 250q-31 -2 -47.5 15.5t-12.5 48.5l17 118q8 41 26.5 54.5t63.5 13.5h57q76 0 64 -76l-19 -131q-16 -143 -121 -326z" />
<glyph unicode="-" horiz-adv-x="901" d="M119 442l20 152h621l-21 -152h-620z" />
<glyph unicode="." horiz-adv-x="468" d="M57 76l17 110q8 68 76 68h65q76 0 68 -76l-15 -108q-8 -70 -78 -70h-65q-80 0 -68 76z" />
<glyph unicode="/" horiz-adv-x="1083" d="M-47 -137l1022 1550h168l-1022 -1550h-168z" />
<glyph unicode="0" horiz-adv-x="1239" d="M139 715q55 391 187.5 558t398.5 167q274 0 366.5 -176.5t36.5 -565.5q-53 -389 -187 -557t-398 -168q-272 0 -365.5 174.5t-38.5 567.5zM337 273.5q44 -121.5 206 -121.5q172 0 258 125.5t131 437.5q43 305 -2 426t-209 121q-172 0 -257 -126t-126 -438 q-45 -303 -1 -424.5z" />
<glyph unicode="1" horiz-adv-x="817" d="M129 1270l375 143h207l-199 -1413h-205l152 1096q12 84 26 129l-352 -109z" />
<glyph unicode="2" horiz-adv-x="1142" d="M25 0l18 133q10 61 35 86l459 443q158 150 236.5 258t86.5 204q10 84 -41 108.5t-178 24.5q-191 1 -418 -30v159q236 51 439 52q215 0 320 -67.5t85 -250.5q-16 -129 -84 -238.5t-227 -263.5l-445 -428q90 8 215 9h461l-26 -199h-936z" />
<glyph unicode="3" horiz-adv-x="1128" d="M25 10l26 160q29 -2 134.5 -9t123 -7t119.5 2q309 23 352 268q18 111 -32 173t-195 65l-264 6l20 153h256q145 2 204.5 68.5t72 181.5t-34.5 152t-219 37q-145 -1 -350 -17l-2 160q227 37 399 37q233 0 326.5 -83t76.5 -253q-8 -82 -33.5 -156t-82 -134t-134.5 -69l-4 -8 q246 -41 199 -352q-61 -393 -543 -412q-178 -6 -415 37z" />
<glyph unicode="4" horiz-adv-x="1257" d="M77.5 417q-44.5 81 10.5 169l502 827h205l-498 -833q-47 -78 31 -78h454l58 409l69 230h158l-90 -639h184l-20 -146l-187 -20l-47 -336h-194l47 336h-527q-111 0 -155.5 81z" />
<glyph unicode="5" horiz-adv-x="1095" d="M29 27l34 166q182 -45 340 -35q326 18 361 293q18 137 -56.5 189t-289.5 65l-154 14q-39 2 -62.5 30.5t-15.5 69.5l115 594h762l-35 -176h-586l-69 -352l151 -15q242 -20 352.5 -120.5t86.5 -315.5q-10 -82 -38 -152.5t-83.5 -140t-155.5 -113.5t-237 -53 q-203 -10 -420 52z" />
<glyph unicode="6" horiz-adv-x="1169" d="M119.5 283.5q-17.5 160.5 21.5 414.5q27 193 68 325t90 214t124 126t153.5 59.5t195.5 15.5q133 0 309 -33l-24 -148q-94 6 -273 7q-207 0 -290.5 -93.5t-139.5 -396.5q158 152 363 152q190 2 277 -104.5t50 -362.5q-37 -248 -151.5 -366t-374.5 -118q-195 0 -288 74 t-110.5 234.5zM326 590q-37 -258 2 -348t202 -90q162 0 228.5 75.5t91.5 243.5q25 164 -10 227.5t-176 61.5q-160 0 -338 -170z" />
<glyph unicode="7" horiz-adv-x="1048" d="M166 1239l16 174h807q66 0 88.5 -38t-6.5 -97l-616 -1278h-205l549 1135q29 61 61 104h-694z" />
<glyph unicode="8" horiz-adv-x="1239" d="M96 360q25 172 89.5 267.5t195.5 107.5l2 8q-193 23 -154 326q29 199 132.5 283t361.5 84q266 -2 353 -90.5t59 -292.5q-41 -295 -246 -318l-2 -8q231 -25 180 -383q-27 -199 -136.5 -281.5t-389.5 -85.5q-260 -2 -365.5 91.5t-79.5 291.5zM295 389q-18 -139 33 -187 t235 -48q170 0 235.5 54t82.5 198q23 152 -25.5 198.5t-232.5 46.5q-178 -2 -242 -50t-86 -212zM410 1034q-18 -135 28.5 -177t218.5 -42q160 0 216.5 47t72.5 187q20 131 -24.5 176t-214.5 45q-166 0 -222.5 -48t-74.5 -188z" />
<glyph unicode="9" horiz-adv-x="1167" d="M92 8l29 150q135 -10 289 -6q211 6 296 105t140 390q-82 -88 -162 -124t-184 -36q-113 0 -187.5 35t-109.5 98.5t-47.5 149.5t2.5 184q31 262 157.5 373t368.5 111q274 0 355 -156t18 -567q-35 -231 -84 -374.5t-128 -224.5t-176.5 -111t-248.5 -30q-168 0 -328 33z M348 942q-18 -158 23 -225.5t170 -65.5q90 0 162.5 38t173.5 136q41 254 0 346.5t-207 92.5q-162 0 -230.5 -73t-91.5 -249z" />
<glyph unicode=":" horiz-adv-x="493" d="M55 76l17 110q7 68 75 68h66q76 0 68 -76l-17 -108q-6 -70 -76 -70h-65q-80 0 -68 76zM145 727l17 111q8 67 78 67h65q78 0 66 -76l-15 -108q-8 -70 -75 -70h-66q-78 0 -70 76z" />
<glyph unicode=";" horiz-adv-x="501" d="M63 -246q55 176 70 250q-31 -2 -47 15.5t-12 48.5l16 118q8 41 25.5 54.5t62.5 13.5h60q76 0 63 -76l-18 -131q-16 -143 -121 -326zM162 727l16 111q6 67 76 67h65q76 0 68 -76l-16 -108q-6 -70 -76 -70h-66q-80 0 -67 76z" />
<glyph unicode="&#x3c;" horiz-adv-x="1073" d="M90 532l23 156l884 350l-20 -164l-707 -268l629 -272l-22 -152z" />
<glyph unicode="=" horiz-adv-x="1198" d="M106 311l21 148h905l-20 -148h-906zM166 743l20 148h906l-21 -148h-905z" />
<glyph unicode="&#x3e;" horiz-adv-x="1075" d="M78 184l22 166l705 271l-627 270l21 151l788 -354l-22 -156z" />
<glyph unicode="?" horiz-adv-x="1024" d="M176 1272v143q14 2 65.5 11.5t66 11.5t59.5 8t75.5 7t80.5 3t110 2q205 0 305 -82t78 -243q-10 -84 -57.5 -155t-107.5 -124t-122.5 -109.5t-113 -136.5t-68.5 -176h-168q12 102 57 190.5t102.5 148.5t114 113.5t99.5 111t51 116.5q14 104 -34 141t-181 37 q-203 0 -412 -18zM313 76l19 110q6 68 76 68h51q78 0 65 -76l-14 -108q-8 -70 -76 -70h-51q-78 0 -70 76z" />
<glyph unicode="@" horiz-adv-x="1593" d="M111 471q25 147 64.5 239.5t104 139.5t134 62.5t180.5 15.5q170 0 461 -54l-97 -628q-12 -94 64 -94q113 0 161 107.5t87 406.5q10 78 17 132t8 105t0 84t-14 62.5t-23.5 46t-42 31t-54 20.5t-75 10t-92.5 4h-113h-660l17 148q311 14 649 18q145 2 237.5 -6t168 -34.5 t113.5 -72t58.5 -124t17.5 -183t-26 -258.5q-33 -270 -85 -411.5t-136 -197.5t-229 -56q-221 0 -242 200q-168 -209 -391 -209q-174 0 -239.5 116t-22.5 380zM295.5 203.5q23.5 -60.5 120.5 -60.5q92 0 174 51t188 168l66 402q-180 4 -182 4q-106 0 -163 -9t-99 -46 t-60 -92.5t-37 -163.5q-31 -193 -7.5 -253.5z" />
<glyph unicode="A" horiz-adv-x="1275" d="M-66 0l635 1362q20 51 80 51h209q27 0 46.5 -17.5t21.5 -41.5l256 -1354h-205l-72 426h-565l-188 -426h-218zM420 606h457l-89 531q-8 41 -16 123h-61l-54 -123z" />
<glyph unicode="B" horiz-adv-x="1269" d="M86 0l199 1413q166 16 463 17q260 0 360 -82q77 -63 77 -204q0 -42 -7 -91q-23 -154 -88.5 -229.5t-194.5 -88.5l-2 -10q238 -19 238 -275q0 -49 -9 -106q-33 -213 -139 -286.5t-352 -73.5q-359 0 -545 16zM309 160l291 -2q168 0 235.5 48t88.5 189q6 42 6 77 q0 90 -38 127q-52 52 -218 54h-295zM401 811h283q147 0 212 49t85 184q5 34 5 61q0 78 -38 109q-51 41 -211 41h-274z" />
<glyph unicode="C" horiz-adv-x="1163" d="M135 715q55 401 198.5 562t450.5 161q219 0 392 -43l-33 -156q-162 16 -363 16q-137 0 -216 -45t-132 -165.5t-84 -346.5q-20 -137 -21 -237q-1 -121 31 -185q56 -116 246 -118h49q200 0 359 22l10 -157q-170 -47 -422 -48q-306 -1 -414 175q-71 115 -71 322 q0 109 20 243z" />
<glyph unicode="D" horiz-adv-x="1357" d="M86 0l199 1413q250 18 460 19q336 0 451 -162q76 -108 77 -325q0 -110 -20 -247q-23 -158 -52.5 -270.5t-73.5 -192t-95 -129t-127 -78t-155.5 -37.5t-194.5 -9q-197 0 -469 18zM313 164q176 -4 240 -4q166 0 254 41t143.5 157.5t89.5 356.5q20 139 22 230q0 13 1 25 q1 76 -13 130q-16 64 -57 95.5t-99 44.5t-153 13q-25 0 -123 -1t-151 -1z" />
<glyph unicode="E" horiz-adv-x="1146" d="M115 293l121 874q16 119 96 184.5t215 65.5q424 0 608 -16l-27 -160h-557q-66 0 -97.5 -29.5t-39.5 -103.5l-39 -287h596l-20 -157h-598l-49 -365q-2 -18 -2 -33q0 -44 17 -66q23 -28 91 -28h547l-4 -160q-176 -16 -567 -16q-164 0 -237 79q-58 63 -58 163q0 26 4 55z " />
<glyph unicode="F" horiz-adv-x="1103" d="M82 0l160 1157q41 260 313 260q412 0 590 -18l-31 -158h-518q-78 0 -110.5 -27.5t-43.5 -105.5l-45 -311h580l-23 -158h-577l-90 -639h-205z" />
<glyph unicode="G" horiz-adv-x="1277" d="M133 715q29 221 83 365.5t143.5 222t196 107.5t257.5 30q232 0 406 -45l-31 -154q-172 16 -350 16q-127 0 -204 -20t-137.5 -82.5t-93 -170t-55.5 -286.5q-16 -134 -16 -233q0 -123 25 -191q44 -120 192 -120q98 0 178 47t191 155l65 463h197l-115 -819h-147v190 q-184 -217 -441 -217q-215 0 -300 179q-57 120 -57 334q0 104 13 229z" />
<glyph unicode="H" horiz-adv-x="1368" d="M86 0l199 1413h207l-82 -571h618l80 571h205l-199 -1413h-205l95 664h-619l-92 -664h-207z" />
<glyph unicode="I" horiz-adv-x="546" d="M86 0l199 1413h207l-199 -1413h-207z" />
<glyph unicode="J" horiz-adv-x="700" d="M-20 10l38 146h95q156 0 178 147l153 1110h207l-155 -1108q-23 -160 -104 -243q-79 -80 -204 -80h-6q-125 0 -202 28z" />
<glyph unicode="K" horiz-adv-x="1226" d="M86 0l199 1413h204l-63 -436q-8 -78 -31 -158h152l489 594h248l-479 -582q-47 -57 -100 -94l-3 -8q39 -49 72 -113l338 -616h-231l-353 653h-159q0 -84 -9 -149l-69 -504h-205z" />
<glyph unicode="L" horiz-adv-x="1046" d="M127 305l152 1108h206l-155 -1114q-2 -15 -2 -28q0 -99 108 -99h504l-4 -160q-176 -16 -543 -16q-143 0 -215 79q-56 61 -56 165q0 31 5 65z" />
<glyph unicode="M" horiz-adv-x="1802" d="M59 0l242 1333q12 80 90 80h219q66 0 76 -74l133 -827q8 -47 23 -193h37q16 41 43.5 109t31.5 80l355 838q26 65 94 67h223q42 1 62 -23q17 -20 17 -52q0 -6 -1 -13l-129 -1325h-203l129 1243h-39l-428 -1010q-27 -65 -92 -65h-2h-178q-72 0 -82 74l-158 1001h-41 l-217 -1243h-205z" />
<glyph unicode="N" horiz-adv-x="1445" d="M86 0l186 1337q12 76 86 76h174q55 0 82 -67l318 -936q63 -203 65 -213h35q6 117 21 213l135 1003h203l-189 -1337q-12 -76 -82 -76h-178q-57 0 -80 68l-330 962q-39 111 -55 193h-31q-2 -86 -16 -193l-139 -1030h-205z" />
<glyph unicode="O" horiz-adv-x="1366" d="M135 715q53 401 199 563t459 162q301 0 413 -169q75 -112 75 -328q0 -109 -19 -245q-55 -408 -199.5 -566.5t-450.5 -158.5q-300 0 -416 167q-78 113 -79 337q0 106 18 238zM348 698q-19 -134 -19 -232q1 -128 33 -194q56 -116 254 -116q201 0 294.5 119.5t138.5 439.5 q20 141 20 241q1 126 -31 188q-56 112 -256 113q-205 0 -296 -117.5t-138 -441.5z" />
<glyph unicode="P" horiz-adv-x="1208" d="M86 0l199 1413q176 18 485 19q252 0 347 -104q70 -77 70 -231q0 -55 -9 -120q-20 -139 -55.5 -224t-97.5 -133.5t-144 -65.5t-211 -17q-125 0 -301 20l-78 -557h-205zM391 713h271q162 0 225 57t88 223q8 51 8 91q-1 82 -33 118q-48 53 -188 53q-215 0 -295 -2z" />
<glyph unicode="Q" horiz-adv-x="1366" d="M135 715q53 401 199 563t459 162q301 0 413 -169q75 -112 75 -328q0 -109 -19 -245q-55 -408 -199.5 -566.5t-450.5 -158.5q-301 0 -416 167q-79 113 -79 337q0 106 18 238zM348 698q-19 -134 -19 -232q0 -129 33 -194q56 -116 254 -116q201 0 294.5 119.5t138.5 439.5 q20 141 20 241q0 126 -31 188q-57 113 -256 113q-205 0 -296 -117.5t-138 -441.5zM416 -209l78 123q233 -109 544 -158l-82 -202q-294 71 -540 237z" />
<glyph unicode="R" horiz-adv-x="1271" d="M86 0l199 1413q176 18 485 19q233 0 341 -94q84 -73 84 -228q0 -45 -7 -96q-23 -162 -96.5 -248t-219.5 -104l-2 -13q123 -35 154 -207l90 -442h-209l-84 444q-14 76 -49 107t-102 31l-301 2l-82 -584h-201zM393 758h283q150 2 217.5 57t87.5 203q6 42 6 75q0 77 -32 112 q-46 50 -191 50q-221 0 -301 -2z" />
<glyph unicode="S" horiz-adv-x="1150" d="M49 16l27 152q319 -10 407 -10q180 2 246 40t84 173q4 31 4 56q-1 56 -19 82q-26 38 -118 71l-277 98q-145 54 -198 150q-37 68 -37 164q0 40 6 85q16 117 55 190.5t108 109.5t145.5 48.5t197.5 12.5q246 0 424 -45l-23 -148q-211 10 -401 10q-70 0 -101.5 -1t-74.5 -10 t-62.5 -29.5t-37 -59.5t-25.5 -98q-4 -32 -3 -58q0 -54 16 -79q26 -37 122 -72l270 -96q156 -54 206 -146q35 -64 35 -163q0 -43 -7 -93q-31 -225 -146.5 -300t-386.5 -75q-223 0 -436 41z" />
<glyph unicode="T" horiz-adv-x="1179" d="M129 1231l27 182h1097l-24 -182h-449l-174 -1231h-205l174 1231h-446z" />
<glyph unicode="U" horiz-adv-x="1359" d="M154 551l118 862h207l-123 -872q-11 -79 -11 -140q1 -108 35 -161q54 -84 226 -84q178 0 264 88t117 307l121 862h207l-125 -872q-43 -309 -176 -438.5t-402 -129.5q-276 -1 -388 135q-81 98 -82 286q0 72 12 157z" />
<glyph unicode="V" horiz-adv-x="1247" d="M137 1413h207l166 -1104q18 -150 18 -155h54q29 88 61 163l471 1096h217l-614 -1360q-23 -53 -78 -53h-199q-27 0 -45 18.5t-22 42.5z" />
<glyph unicode="W" horiz-adv-x="1937" d="M170 1413h209l49 -1081q2 -29 3 -89.5t1 -90.5h47q8 29 60 188l340 1010q20 63 84 63h215q29 0 48 -20.5t21 -51.5l74 -1011q6 -95 6 -152v-26h49q23 78 56 184l346 1077h215l-463 -1358q-23 -55 -84 -55h-223q-29 0 -49.5 18.5t-22.5 47.5l-64 1038q-2 27 -6 79t-4 79 h-43l-51 -166l-348 -1039q-18 -57 -82 -57h-221q-31 0 -52.5 18.5t-23.5 44.5z" />
<glyph unicode="X" horiz-adv-x="1255" d="M-43 0l496 731l-265 682h209l224 -602h53l403 602h226l-461 -682l286 -731h-208l-248 655h-51l-426 -655h-238z" />
<glyph unicode="Y" horiz-adv-x="1169" d="M129 1413h207l203 -584q29 -90 36 -163h19q27 84 82 170l364 577h224l-598 -926l-68 -487h-207l72 498z" />
<glyph unicode="Z" horiz-adv-x="1155" d="M10 0l25 174l878 1065h-718l26 174h944l-26 -174l-879 -1065h746l-25 -174h-971z" />
<glyph unicode="[" horiz-adv-x="671" d="M61 -215l236 1673q8 53 43 84t88 31h303l-18 -129h-193q-14 0 -26.5 -11.5t-16.5 -25.5l-223 -1587q-4 -29 22 -29h205l-18 -129h-295q-53 0 -84 31t-23 92z" />
<glyph unicode="\" horiz-adv-x="1050" d="M160 1413h151l592 -1550h-151z" />
<glyph unicode="]" horiz-adv-x="671" d="M-55 -338l18 129h191q14 0 27.5 11.5t17.5 25.5l223 1587q4 29 -23 29h-204l18 129h293q53 0 85 -36t23 -87l-235 -1673q-8 -53 -44 -84t-87 -31h-303z" />
<glyph unicode="^" horiz-adv-x="884" d="M104 803l369 436h145l250 -436l-84 -47l-237 352h-17l-350 -352z" />
<glyph unicode="_" horiz-adv-x="1181" d="M37 -150l22 150h899l-22 -150h-899z" />
<glyph unicode="`" horiz-adv-x="657" d="M147 1346l107 141l362 -301l-69 -90z" />
<glyph unicode="a" d="M96 512q23 166 64 271.5t108.5 156.5t139 68.5t184.5 17.5q244 0 489 -53l-139 -973h-156l9 184q-180 -209 -430 -209q-182 0 -246 119q-39 73 -39 212q0 89 16 206zM288 211q22 -64 118 -64q94 0 184 52t203 161l71 496q-188 4 -211 4q-106 0 -161.5 -10t-97.5 -52 t-61.5 -107.5t-37.5 -192.5q-17 -128 -17 -204q1 -56 10 -83z" />
<glyph unicode="b" horiz-adv-x="1177" d="M70 47l194 1387h197l-55 -414q-18 -135 -54 -229q98 98 216 165.5t218 67.5q119 0 182.5 -44t89.5 -164q12 -53 12 -122q0 -89 -19 -207q-23 -168 -64 -273t-106.5 -156.5t-133 -68t-174.5 -16.5q-250 0 -503 74zM281 143q147 -6 219 -6q195 0 256 62.5t94 302.5 q16 126 16 201q0 57 -10 85q-22 64 -117 64q-145 0 -391 -217z" />
<glyph unicode="c" horiz-adv-x="995" d="M90 508q39 287 160 402.5t379 115.5q201 0 327 -53l-30 -123q-123 8 -267 8q-180 0 -259 -72q-78 -72 -105 -292q-9 -76 -9 -135q0 -107 32 -151q50 -66 221 -67q174 0 301 23l14 -135q-154 -53 -352 -54q-264 0 -358 123q-66 86 -66 251q0 72 12 159z" />
<glyph unicode="d" d="M96 512q25 166 65 271.5t104.5 156.5t132 68.5t171.5 17.5q154 0 326 -27q0 70 14 191l35 244h199l-201 -1434h-156l11 209q-213 -233 -453 -234q-158 0 -224 122q-40 75 -40 215q0 87 16 200zM288 216q20 -69 113 -69t181 50.5t213 167.5l67 493q-92 4 -215 4 q-102 0 -156.5 -10t-96.5 -51t-60.5 -108.5t-36.5 -194.5q-17 -125 -17 -200q0 -53 8 -82z" />
<glyph unicode="e" horiz-adv-x="1103" d="M92 526q39 289 159 394.5t394 105.5q233 0 317 -82q66 -64 67 -177q0 -31 -5 -65q-25 -145 -115 -209.5t-276 -78.5l-346 -31v-9q-1 -134 59 -182q62 -50 193 -51q139 0 368 25l13 -133q-145 -57 -412 -58q-256 1 -354 135q-72 98 -72 273q0 66 10 143zM299 530l334 31 q94 6 137 40t55 118q3 21 3 38q0 63 -34 81q-44 22 -180 22q-156 0 -220 -64.5t-95 -265.5z" />
<glyph unicode="f" horiz-adv-x="782" d="M-242 -391l31 147h154q96 0 137 32t55 128l131 930h-178l18 143l183 10l24 179q41 290 326 290h2q199 0 293 -14l-33 -147h-196q-96 0 -138.5 -32t-56.5 -128l-23 -148h310l-21 -153h-309l-135 -961q-41 -293 -326 -293q-111 0 -248 17z" />
<glyph unicode="g" horiz-adv-x="1179" d="M27 -389l20 131q108 -3 213 -3q53 0 105 1q338 4 385 244q35 174 86 249q-84 -115 -208 -186.5t-270 -71.5q-168 0 -236 119q-41 73 -41 213q0 89 17 205q25 168 66 273.5t106.5 156.5t132 67.5t170.5 16.5q262 0 508 -53h4l-135 -948q-53 -446 -592 -453q-209 0 -331 39 zM292 213q21 -66 116 -66q96 0 186 51t203 162l71 496q-188 4 -217 4q-195 0 -257 -62.5t-95 -299.5q-17 -126 -17 -201q0 -56 10 -84z" />
<glyph unicode="h" horiz-adv-x="1187" d="M66 0l202 1434h197l-51 -394q-20 -137 -49 -245q262 231 462 231q127 0 193 -72q50 -56 50 -149q0 -28 -5 -60l-107 -745h-196l96 696q5 36 5 63q-1 44 -13 65q-20 34 -84 34q-84 0 -175 -51t-239 -168l-88 -639h-198z" />
<glyph unicode="i" horiz-adv-x="514" d="M76 0l139 999h197l-140 -999h-196zM244 1257l18 115q5 53 60 53h94q29 0 43 -16q11 -12 10 -33v-12l-14 -115q-8 -55 -62 -55h-94q-56 0 -56 52q0 5 1 11z" />
<glyph unicode="j" horiz-adv-x="514" d="M-90 -324q137 139 162 318l143 1005h197l-144 -1015q-14 -123 -80.5 -228.5t-169.5 -171.5zM244 1257l18 115q5 53 60 53h94q29 0 43 -16q11 -12 11 -33q0 -6 -1 -12l-14 -115q-8 -55 -62 -55h-94q-56 0 -56 52q0 5 1 11z" />
<glyph unicode="k" horiz-adv-x="1079" d="M68 0l200 1434h199l-90 -672q-18 -123 -66 -246q195 92 337 216t183 267h203q-86 -268 -332 -444q31 -47 62 -119l194 -436h-213l-192 461q-92 -49 -238 -115l-51 -346h-196z" />
<glyph unicode="l" horiz-adv-x="610" d="M102 248l168 1186h197l-162 -1149q-3 -20 -3 -36q0 -39 18 -59q24 -28 94 -28h94l8 -156q-53 -24 -180 -24h-10q-120 0 -180 70q-48 55 -47 145q0 24 3 51z" />
<glyph unicode="m" horiz-adv-x="1785" d="M66 0l141 999h151l-10 -213q238 240 432 240q114 0 176 -60q60 -58 60 -158v-7q117 119 215 172t199 53q131 0 191 -74q46 -57 46 -149q0 -27 -4 -58l-104 -745h-199l98 696q4 28 4 51q0 50 -18 75q-26 36 -92 36q-72 0 -144.5 -46t-210.5 -177l-90 -635h-190l96 696 q4 30 4 54q-1 45 -15 70q-22 38 -95.5 38t-145.5 -45t-209 -172l-90 -641h-196z" />
<glyph unicode="n" horiz-adv-x="1187" d="M66 0l141 999h158l-11 -215q270 242 473 242q127 0 193 -72q50 -56 50 -149q0 -28 -5 -60l-107 -745h-196l96 696q5 36 5 63q-1 44 -13 65q-20 34 -84 34q-84 0 -175 -51t-239 -168l-88 -639h-198z" />
<glyph unicode="o" horiz-adv-x="1159" d="M90 506q39 283 161 401.5t378 118.5q258 0 356 -124q69 -87 69 -255q0 -70 -12 -155q-39 -283 -161.5 -401t-374.5 -118q-256 0 -356 124q-71 89 -71 261q0 68 11 148zM295 492q-12 -82 -12 -143q0 -93 27 -137q44 -73 196 -73q160 0 231.5 79t100.5 288q13 86 13 148 q0 90 -26 132q-44 72 -196 72q-158 0 -230.5 -75.5t-103.5 -290.5z" />
<glyph unicode="p" horiz-adv-x="1181" d="M8 -410l201 1409h156l-11 -213q96 98 217 168t222 70q180 0 241 -114q37 -69 37 -208q0 -92 -16 -215q-23 -168 -64 -272t-106.5 -156.5t-135 -69t-178.5 -16.5q-141 0 -315 27q0 -92 -14 -190l-35 -220h-199zM287 139q96 -2 211 -2q106 0 161.5 10.5t97.5 51.5 t60.5 108.5t36.5 194.5q17 128 17 204q0 55 -9 82q-22 64 -114 64q-68 0 -174.5 -57.5t-217.5 -159.5z" />
<glyph unicode="q" horiz-adv-x="1169" d="M96 512q23 166 64 271.5t104.5 156.5t131 68.5t167.5 17.5q266 0 512 -74l-196 -1362h-197l57 383q18 129 62 238q-215 -236 -455 -236q-158 0 -224 120q-42 74 -42 216q0 88 16 201zM288 215q21 -68 118 -68q92 0 176 49.5t213 168.5l67 491q-141 6 -221 6t-128 -8 t-88 -27.5t-61.5 -62.5t-37 -104.5t-29.5 -161.5q-17 -126 -17 -201q0 -54 8 -82z" />
<glyph unicode="r" horiz-adv-x="821" d="M66 0l141 999h151l-10 -229q250 256 451 256h53l-49 -186h-55q-78 0 -160 -46t-236 -157l-88 -637h-198z" />
<glyph unicode="s" horiz-adv-x="1040" d="M39 6l22 148q115 -10 314 -11q188 0 253.5 20.5t76.5 82.5q2 10 2 20t-1 17.5t-6.5 14.5t-8.5 12t-11 11.5t-14.5 10.5t-18.5 10t-19 9t-22.5 10.5t-25.5 11.5l-269 123q-113 54 -160 120q-36 50 -36 122q0 23 4 48q17 136 117 190q94 50 277 50h28q231 -4 428 -35 l-25 -141q-260 8 -397 10q-135 0 -181.5 -14.5t-54.5 -73.5q-1 -10 -2 -18q-1 -38 21 -58q26 -24 100 -57l270 -123q123 -58 168 -118q34 -46 34 -121q0 -23 -3 -50q-8 -68 -34.5 -113.5t-62.5 -72.5t-98.5 -41t-123 -18.5t-154.5 -4.5q-98 0 -154.5 3.5t-125 12.5 t-107.5 13z" />
<glyph unicode="t" horiz-adv-x="788" d="M82 846l18 143l187 10l43 293h194l-41 -293h308l-21 -153h-309l-80 -561q-3 -21 -3 -39q0 -40 16 -58q24 -26 95 -26h150l8 -154q-87 -26 -223 -26h-10q-134 0 -192 74q-45 56 -44 149q0 29 4 61l82 580h-182z" />
<glyph unicode="u" horiz-adv-x="1165" d="M96 252l105 747h198l-100 -696q-4 -29 -4 -52q1 -48 17 -72q24 -36 94 -36q84 0 163.5 49.5t218.5 172.5l86 634h197l-139 -999h-154l13 209q-244 -236 -455 -236q-134 0 -196 75q-48 58 -48 148q0 27 4 56z" />
<glyph unicode="v" horiz-adv-x="1097" d="M86 999h207l145 -843h31q41 0 65.5 12t51.5 49q59 78 143 289q90 217 137 493h205q-55 -289 -178 -573q-86 -201 -166 -309q-43 -61 -88 -89t-125 -28h-170q-55 0 -65 53z" />
<glyph unicode="w" horiz-adv-x="1755" d="M86 999h207l133 -843h29q59 0 100 77q47 88 100 273q47 172 88 444q6 49 56 49h217q43 0 49 -45l92 -798h25q43 0 84 65q82 127 137 285q78 213 119 493h207q-66 -311 -175 -573q-94 -221 -170 -317q-82 -109 -188 -109h-131q-25 0 -41 15.5t-20 37.5l-86 817h-27 q-16 -184 -76 -413q-55 -184 -125 -312q-80 -145 -244 -145h-112q-53 0 -64 53z" />
<glyph unicode="x" horiz-adv-x="1087" d="M-45 0l401 518l-233 481h199l184 -403h55l305 403h215l-370 -483l252 -516h-199l-209 442h-45l-334 -442h-221z" />
<glyph unicode="y" horiz-adv-x="1116" d="M72 -279q131 31 229 92.5t188 186.5h-92q-47 0 -79.5 25.5t-41.5 70.5l-192 903h209l151 -809q6 -35 41 -34h101q8 14 22.5 41.5t18.5 35.5q180 375 254 766h206q-111 -487 -288 -825q-160 -303 -316.5 -430t-373.5 -164z" />
<glyph unicode="z" horiz-adv-x="1040" d="M12 0l21 162l712 676h-608l23 161h833l-20 -161l-713 -676h625l-23 -162h-850z" />
<glyph unicode="{" horiz-adv-x="659" d="M86 604l18 139q61 16 82 26.5t38.5 40.5t25.5 93l55 400q20 152 113.5 219t288.5 51l-7 -125q-102 0 -149 -39t-62 -131l-49 -354q-16 -131 -60 -182.5t-161 -71.5q106 -35 140 -88.5t18 -161.5l-66 -473q-14 -92 17.5 -126t134.5 -34l-8 -125q-188 -14 -271.5 58.5 t-60.5 220.5l72 518q10 72 -10.5 94t-98.5 51z" />
<glyph unicode="|" horiz-adv-x="505" d="M49 -346l273 1945h143l-275 -1945h-141z" />
<glyph unicode="}" horiz-adv-x="661" d="M-51 -338l8 125q102 0 148.5 38t58.5 130l67 473q16 111 61.5 160t168.5 86q-104 20 -138 75.5t-14 182.5l51 354q12 92 -18.5 127t-132.5 35l6 125q193 18 273.5 -58.5t60.5 -220.5l-55 -401q-12 -88 3 -108.5t97 -45.5l-19 -139q-47 -16 -63 -23.5t-39.5 -23.5t-33 -41 t-15.5 -63l-74 -517q-20 -152 -111.5 -219t-289.5 -51z" />
<glyph unicode="~" horiz-adv-x="1064" d="M129 465q2 129 54.5 193.5t130 60.5t218 -57.5t185.5 -59.5q55 -6 79.5 20.5t34.5 90.5l99 -8q0 -125 -51.5 -189.5t-128.5 -58.5q-90 4 -228.5 57t-177.5 57q-55 6 -80 -20t-33 -94z" />
<glyph unicode="&#xa1;" horiz-adv-x="532" d="M29 -397l84 602l73 375h156l-33 -375l-84 -602h-196zM203 836l14 110q12 70 80 70h51q78 0 64 -78l-15 -109q-8 -70 -75 -69h-52q-76 0 -67 76z" />
<glyph unicode="&#xa2;" horiz-adv-x="1034" d="M119 719q41 287 161.5 402.5t376.5 115.5h29l43 176h94l-45 -182q131 -14 207 -47l-29 -123q-98 8 -217 8l-161 -717q188 6 290 23l15 -135q-154 -53 -348 -54l-43 -186h-95l45 190q-211 18 -285.5 142.5t-37.5 386.5zM326 705q-25 -190 9.5 -263.5t147.5 -85.5l160 713 q-152 -6 -222.5 -82t-94.5 -282z" />
<glyph unicode="&#xa3;" horiz-adv-x="1167" d="M35 0l24 176q193 86 217 373l11 137h-160l16 119h154l22 264q10 117 42 191.5t91.5 112.5t127 51.5t172.5 13.5q170 -1 381 -21l-25 -164q-154 6 -352 7q-123 0 -177.5 -43t-62.5 -160l-18 -252h420l-23 -119h-408l-10 -143q-12 -141 -57 -225.5t-144 -153.5 q43 12 138 12h596l-25 -176h-950z" />
<glyph unicode="&#xa4;" horiz-adv-x="1218" d="M100 346l160 143q-53 98 -39 240q23 152 105 250l-138 156l93 86l139 -160q102 66 246 65q147 0 243 -73l158 141l82 -94l-160 -142q57 -104 39 -245q-18 -145 -100 -246l141 -156l-92 -84l-139 160q-111 -70 -256 -70q-143 0 -242 76l-158 -141zM340 713 q-14 -129 51.5 -206t192.5 -77q135 -2 223 80t102 221q14 129 -52 206t-193 77q-135 0 -221.5 -81t-102.5 -220z" />
<glyph unicode="&#xa5;" horiz-adv-x="1265" d="M135 319l15 117h350l10 70l-16 45h-326l14 117h269l-277 745h209l201 -575q31 -84 39 -164h18q27 84 82 170l362 569h226l-486 -745h269l-17 -117h-327l-37 -55l-8 -60h356l-17 -117h-356l-43 -319h-207l45 319h-348z" />
<glyph unicode="&#xa6;" horiz-adv-x="507" d="M49 -346l115 819h143l-114 -819h-144zM207 780l115 819h143l-115 -819h-143z" />
<glyph unicode="&#xa7;" horiz-adv-x="1116" d="M12 -313l25 155q186 -12 375 -14q70 0 109.5 3t80.5 14.5t61.5 37t26.5 66.5q10 61 -14.5 100t-81.5 74l-297 178q-135 78 -160 192.5t43 284.5h144q-31 -127 -13.5 -200.5t103.5 -126.5l319 -199q96 -57 140.5 -129t27.5 -197q-25 -164 -128 -214t-312 -50 q-262 4 -449 25zM203 1178q23 156 124 209t312 53q262 -4 451 -25l-25 -155q-137 10 -373 12q-147 2 -207.5 -18.5t-72.5 -96.5q-10 -61 15.5 -99t80.5 -73l303 -184q133 -82 155.5 -200t-44.5 -286h-144q31 129 12.5 208t-104.5 132l-317 199q-98 61 -141.5 132t-24.5 192z " />
<glyph unicode="&#xa8;" horiz-adv-x="845" d="M272 1260l19 112q8 55 63 55h60q33 0 44 -12t7 -43l-19 -110q-6 -53 -59 -54h-65q-55 0 -50 52zM616 1260l17 112q8 55 65 55h60q33 0 43 -12t6 -43l-19 -110q-2 -53 -57 -54h-65q-55 0 -50 52z" />
<glyph unicode="&#xa9;" horiz-adv-x="1699" d="M129 715q41 313 262 519t551 206t515 -207t145 -535q-41 -317 -265.5 -521t-554.5 -204q-332 0 -513 210t-140 532zM235.5 698.5q-34.5 -280.5 119 -452.5t425.5 -172q285 0 482.5 180t232.5 461q35 272 -115.5 448t-429.5 176q-287 0 -483.5 -180t-231 -460.5zM477 719 q33 250 136.5 344t334.5 94q131 0 256 -29l-20 -110q-129 6 -221 6q-174 0 -240 -59.5t-94 -262.5q-25 -176 15 -240.5t173 -64.5q193 1 293 13l8 -113q-125 -33 -276 -33q-242 0 -321 99.5t-44 355.5z" />
<glyph unicode="&#xaa;" horiz-adv-x="915" d="M158 903q14 115 44.5 187.5t79 104.5t94.5 42t118 10q186 0 356 -39l-90 -651h-121v109q-115 -123 -285 -123q-121 0 -172 82t-24 278zM307.5 713q14.5 -37 77.5 -37q109 0 260 129l45 315l-143 2q-135 0 -177 -37.5t-61 -191.5q-16 -143 -1.5 -180z" />
<glyph unicode="&#xab;" horiz-adv-x="987" d="M72 502l4 45l381 395l80 -72l-304 -356l218 -371l-99 -65zM453 502l4 45l381 395l80 -72l-304 -356l217 -371l-98 -65z" />
<glyph unicode="&#xac;" horiz-adv-x="1200" d="M133 535l21 149h905l-58 -412h-151l37 263h-754z" />
<glyph unicode="&#xad;" horiz-adv-x="901" d="M117 442l20 152h621l-21 -152h-620z" />
<glyph unicode="&#xae;" horiz-adv-x="1126" d="M160 991q23 205 156.5 326t338.5 121q199 0 319 -122t95 -341q-20 -209 -152.5 -329t-334.5 -120q-213 0 -329 129t-93 336zM227 983q-18 -188 80.5 -291.5t274.5 -103.5q182 0 295 108.5t129 294.5q14 182 -81.5 283.5t-271.5 101.5q-184 0 -295.5 -108.5t-130.5 -284.5 zM375 725l71 520q74 6 226 6q98 0 148 -30.5t38 -128.5q-6 -53 -32.5 -83t-86.5 -44l-2 -4q31 -12 51 -76l39 -160h-94l-37 162q-14 51 -67 51h-135l-29 -213h-90zM504 1004h125q72 2 101.5 19t37.5 75q6 53 -15.5 68.5t-86.5 15.5l-138 -2z" />
<glyph unicode="&#xaf;" horiz-adv-x="819" d="M223 1241l21 145h579l-20 -145h-580z" />
<glyph unicode="&#xb0;" horiz-adv-x="737" d="M182.5 1185.5q10.5 112.5 88 183.5t194.5 71q125 0 193.5 -78t58.5 -193q-12 -115 -91 -185.5t-196 -70.5q-125 0 -191.5 80t-56 192.5zM305 1182q-6 -68 31 -109t102.5 -41t106.5 39t47 105q4 66 -29.5 106.5t-101.5 40.5q-66 0 -108 -39t-48 -102z" />
<glyph unicode="&#xb1;" horiz-adv-x="1193" d="M78 133l20 148h908l-21 -148h-907zM154 666l20 147h377l37 268h153l-39 -268h377l-20 -147h-377l-39 -269h-149l36 269h-376z" />
<glyph unicode="&#xb2;" horiz-adv-x="831" d="M139 737l13 99q8 49 24 63l268 242q190 168 199 260q4 41 -24.5 53t-100.5 12q-131 0 -260 -16v121q145 29 278.5 28.5t203 -42t57.5 -154.5q-10 -76 -49 -139.5t-138 -149.5l-264 -240q49 10 131 11h275l-23 -148h-590z" />
<glyph unicode="&#xb3;" horiz-adv-x="798" d="M137 743l17 119q33 0 85 -3t75.5 -4t74.5 1q180 12 205 141q12 61 -18.5 93t-112.5 32h-166l14 119h160q86 0 119 33t41 98q6 59 -20.5 77.5t-127.5 18.5q-90 0 -221 -8v119q154 23 256 23q276 0 256 -203q-6 -78 -44 -145.5t-107 -71.5v-4q150 -27 120 -211 q-39 -238 -346 -246q-102 -2 -260 22z" />
<glyph unicode="&#xb4;" horiz-adv-x="657" d="M207 1188l401 301l92 -154l-436 -239z" />
<glyph unicode="&#xb6;" horiz-adv-x="1206" d="M117 934q39 281 194.5 392.5t491.5 111.5q188 0 325 -35l-196 -1403h-150l183 1305q-96 6 -179 6l-243 -1741h-150l119 842q-242 25 -336 148.5t-59 373.5z" />
<glyph unicode="&#xb7;" horiz-adv-x="489" d="M121 477l18 111q6 67 76 67h66q78 0 65 -75l-14 -111q-8 -68 -76 -68h-66q-78 0 -69 76z" />
<glyph unicode="&#xb8;" horiz-adv-x="483" d="M-66 -473l37 104q76 -2 134.5 37t70.5 105q6 29 -13 38t-95 11l22 92q137 12 191.5 -16.5t35.5 -124.5q-20 -131 -126.5 -199t-256.5 -47z" />
<glyph unicode="&#xb9;" horiz-adv-x="585" d="M188 1501l236 84h154l-119 -848h-154l90 625q6 49 17 86l-222 -62z" />
<glyph unicode="&#xba;" horiz-adv-x="901" d="M152 901q27 193 109.5 269.5t264.5 76.5q188 0 258 -83t41 -279q-27 -188 -110.5 -265t-263.5 -77q-184 0 -255 82t-44 276zM303 885q-16 -131 14.5 -175t137.5 -44q104 0 151 50t68 185q16 133 -14 178t-134 45q-115 0 -157.5 -49t-65.5 -190z" />
<glyph unicode="&#xbb;" horiz-adv-x="991" d="M45 143l305 357l-219 370l98 66l281 -424l-4 -45l-381 -395zM426 143l303 357l-217 370l98 66l281 -424l-4 -45l-381 -395z" />
<glyph unicode="&#xbc;" horiz-adv-x="1767" d="M168 1327l248 86h153l-118 -848h-156l88 629q8 53 18 86l-231 -61zM193 0l1101 1413h144l-1102 -1413h-143zM922 231.5q-25 38.5 10 104.5l325 512h152l-309 -496q-20 -39 22 -39h279l33 236l47 135h118l-51 -371h109l-17 -106l-108 -12l-29 -195h-143l24 193h-380 q-57 0 -82 38.5z" />
<glyph unicode="&#xbd;" horiz-adv-x="1806" d="M168 1327l248 86h153l-118 -848h-156l88 629q8 53 18 86l-231 -61zM176 0l1102 1413h143l-1102 -1413h-143zM987 0l14 90q4 43 27 66l287 241q190 158 209 258q8 47 -24 61.5t-109 14.5q-140 0 -281 -14l-2 117q145 29 289 28q170 0 241.5 -42t53.5 -165 q-18 -125 -199 -282l-295 -240q61 8 137 4h318l-19 -137h-647z" />
<glyph unicode="&#xbe;" horiz-adv-x="1961" d="M109 567l12 115q133 -8 256 -8q113 0 163 33.5t60 115.5q8 59 -19.5 90t-125.5 31h-181l17 117h170q94 0 131 38t45 97q8 61 -21.5 80.5t-128.5 19.5q-152 0 -254 -6l-2 113q141 20 275 20q176 0 238.5 -45t46.5 -159q-12 -90 -50.5 -141.5t-126.5 -63.5l-12 -6 q94 -14 128 -67.5t24 -154.5q-16 -129 -92 -185t-244 -56q-133 0 -309 22zM401 0l1102 1413h144l-1102 -1413h-144zM1114.5 231.5q-24.5 38.5 9.5 104.5l326 512h152l-310 -496q-20 -39 23 -39h276l31 236l47 135h121l-53 -371h110l-16 -106l-111 -12l-26 -195h-146l27 193 h-379q-57 0 -81.5 38.5z" />
<glyph unicode="&#xbf;" horiz-adv-x="1009" d="M-27 -106q10 82 57.5 153.5t109 125.5t123 110.5t112.5 134.5t67 170h166q-12 -104 -57 -191.5t-101.5 -147t-112.5 -111.5t-99 -109.5t-54 -116.5q-16 -92 35 -134t180 -42q227 0 412 18v-141q-14 -2 -50 -9t-49.5 -9.5t-45 -7.5t-49 -7t-50 -5t-61.5 -4t-68 -2t-84 -1 q-207 0 -304 89t-77 237zM467 848l14 110q10 68 76 68h49q78 0 70 -76l-17 -110q-8 -70 -77 -70h-50q-78 0 -65 78z" />
<glyph unicode="&#xc0;" horiz-adv-x="1275" d="M-66 0l635 1362q20 51 80 51h209q27 0 46.5 -17.5t21.5 -41.5l256 -1354h-205l-72 426h-565l-188 -426h-218zM416 1737l106 141l363 -301l-70 -90zM420 606h457l-89 531q-8 41 -16 123h-61l-54 -123z" />
<glyph unicode="&#xc1;" horiz-adv-x="1275" d="M-66 0l635 1362q20 51 80 51h209q27 0 46.5 -17.5t21.5 -41.5l256 -1354h-205l-72 426h-565l-188 -426h-218zM420 606h457l-89 531q-8 41 -16 123h-61l-54 -123zM641 1579l401 301l93 -154l-437 -239z" />
<glyph unicode="&#xc2;" horiz-adv-x="1275" d="M-66 0l635 1362q20 51 80 51h209q27 0 46.5 -17.5t21.5 -41.5l256 -1354h-205l-72 426h-565l-188 -426h-218zM420 606h457l-89 531q-8 41 -16 123h-61l-54 -123zM442 1577l303 264h140l256 -276l-74 -78l-246 207h-16l-307 -203z" />
<glyph unicode="&#xc3;" horiz-adv-x="1275" d="M-66 0l635 1362q20 51 80 51h209q27 0 46.5 -17.5t21.5 -41.5l256 -1354h-205l-72 426h-565l-188 -426h-218zM420 606h457l-89 531q-8 41 -16 123h-61l-54 -123zM453 1567q2 123 55 185.5t129 55.5q70 -6 157 -55t136 -55q57 -6 85 19.5t36 82.5l90 -6 q-2 -119 -52.5 -181.5t-130 -56t-170 57.5t-126.5 55q-57 6 -84 -21.5t-35 -88.5z" />
<glyph unicode="&#xc4;" horiz-adv-x="1275" d="M-66 0l635 1362q20 51 80 51h209q27 0 46.5 -17.5t21.5 -41.5l256 -1354h-205l-72 426h-565l-188 -426h-218zM420 606h457l-89 531q-8 41 -16 123h-61l-54 -123zM528 1618l19 115q10 55 63 55h60q59 0 51 -55l-19 -113q-6 -53 -57 -53h-67q-51 0 -50 51zM872 1618l19 115 q6 55 63 55h60q57 0 51 -55l-18 -113q-7 -53 -60 -53h-65q-55 0 -50 51z" />
<glyph unicode="&#xc5;" horiz-adv-x="1275" d="M-66 0l635 1362q20 51 80 51h209q27 0 46.5 -17.5t21.5 -41.5l256 -1354h-205l-72 426h-565l-188 -426h-218zM420 606h457l-89 531q-8 41 -16 123h-61l-54 -123zM578 1688q10 90 71.5 150t157.5 60q102 0 163.5 -63t49.5 -164q-12 -88 -74 -148.5t-160 -60.5 q-102 0 -160.5 63.5t-47.5 162.5zM684 1681q-6 -57 24.5 -88.5t79.5 -31.5q51 0 85 34.5t40 87.5q4 51 -24.5 84t-79.5 33t-86 -34t-39 -85z" />
<glyph unicode="&#xc6;" horiz-adv-x="1871" d="M-92 0l846 1186q94 135 201.5 182t308.5 47q401 0 618 -14l-29 -160h-518q-129 0 -149 -135l-39 -283h569l-20 -161h-572l-49 -361q-10 -72 14.5 -100.5t92.5 -28.5h524l-10 -160q-209 -16 -551 -16q-139 0 -212 79t-52 218l20 147h-465l-309 -440h-219zM561 616h365 l73 519q10 96 78 143h-10q-66 -39 -131 -129z" />
<glyph unicode="&#xc7;" horiz-adv-x="1163" d="M135 715q55 401 198.5 562t450.5 161q219 0 392 -43l-33 -156q-162 16 -363 16q-137 0 -216 -45t-132 -165.5t-84 -346.5q-45 -307 10.5 -422.5t245.5 -117.5q230 -3 408 22l10 -157q-170 -47 -422 -48q-305 0 -413.5 175.5t-51.5 564.5zM301 -498l37 105q78 -2 136 37 t71 104q4 29 -15.5 38t-95.5 11l25 92q135 12 189 -16.5t38 -124.5q-20 -131 -127.5 -198.5t-257.5 -47.5z" />
<glyph unicode="&#xc8;" horiz-adv-x="1146" d="M115 293l121 874q16 119 96 184.5t215 65.5q424 0 608 -16l-27 -160h-557q-66 0 -97.5 -29.5t-39.5 -103.5l-39 -287h596l-20 -157h-598l-49 -365q-8 -70 15 -98.5t91 -28.5h547l-4 -160q-176 -16 -567 -16q-164 0 -237 79t-54 218zM408 1778l106 141l363 -301l-70 -90z " />
<glyph unicode="&#xc9;" horiz-adv-x="1146" d="M115 293l121 874q16 119 96 184.5t215 65.5q424 0 608 -16l-27 -160h-557q-66 0 -97.5 -29.5t-39.5 -103.5l-39 -287h596l-20 -157h-598l-49 -365q-8 -70 15 -98.5t91 -28.5h547l-4 -160q-176 -16 -567 -16q-164 0 -237 79t-54 218zM633 1620l401 301l92 -154l-436 -239z " />
<glyph unicode="&#xca;" horiz-adv-x="1146" d="M115 293l121 874q16 119 96 184.5t215 65.5q424 0 608 -16l-27 -160h-557q-66 0 -97.5 -29.5t-39.5 -103.5l-39 -287h596l-20 -157h-598l-49 -365q-8 -70 15 -98.5t91 -28.5h547l-4 -160q-176 -16 -567 -16q-164 0 -237 79t-54 218zM434 1618l301 264h142l253 -276 l-71 -78l-246 207h-16l-308 -203z" />
<glyph unicode="&#xcb;" horiz-adv-x="1146" d="M115 293l121 874q16 119 96 184.5t215 65.5q424 0 608 -16l-27 -160h-557q-66 0 -97.5 -29.5t-39.5 -103.5l-39 -287h596l-20 -157h-598l-49 -365q-8 -70 15 -98.5t91 -28.5h547l-4 -160q-176 -16 -567 -16q-164 0 -237 79t-54 218zM520 1659l19 115q8 53 63 53h60 q33 0 44 -12.5t7 -40.5l-19 -113q-6 -53 -57 -53h-68q-55 0 -49 51zM864 1659l19 115q6 53 63 53h60q33 0 43 -12.5t6 -40.5l-17 -113q-6 -53 -59 -53h-66q-55 0 -49 51z" />
<glyph unicode="&#xcc;" horiz-adv-x="546" d="M43 1737l107 141l362 -301l-70 -90zM86 0l199 1413h207l-199 -1413h-207z" />
<glyph unicode="&#xcd;" horiz-adv-x="546" d="M86 0l199 1413h207l-199 -1413h-207zM268 1579l402 301l94 -154l-436 -239z" />
<glyph unicode="&#xce;" horiz-adv-x="546" d="M70 1577l303 264h139l256 -276l-74 -78l-245 207h-17l-305 -203zM86 0l199 1413h207l-199 -1413h-207z" />
<glyph unicode="&#xcf;" horiz-adv-x="546" d="M86 0l199 1413h207l-199 -1413h-207zM158 1618l18 115q7 55 64 55h59q33 0 43 -13.5t6 -41.5l-18 -113q-2 -53 -58 -53h-65q-55 0 -49 51zM500 1618l18 115q11 55 64 55h59q59 0 51 -55l-18 -113q-6 -53 -60 -53h-65q-55 0 -49 51z" />
<glyph unicode="&#xd0;" horiz-adv-x="1357" d="M55 692l15 113h129l86 608q250 18 460 19q336 0 451 -162t57 -572q-23 -158 -52.5 -270.5t-73.5 -192t-95 -129t-127 -78t-155.5 -37.5t-194.5 -9q-197 0 -469 18l98 692h-129zM313 164q176 -4 240 -4q166 0 254 41t143.5 157.5t89.5 356.5q20 139 22.5 230t-13 154.5 t-56.5 95.5t-99 45t-153 13q-25 0 -123 -1t-151 -1l-64 -446h306l-15 -113h-307z" />
<glyph unicode="&#xd1;" horiz-adv-x="1445" d="M86 0l186 1337q12 76 86 76h174q55 0 82 -67l318 -936q63 -203 65 -213h35q6 117 21 213l135 1003h203l-189 -1337q-12 -76 -82 -76h-178q-57 0 -80 68l-330 962q-39 111 -55 193h-31q-2 -86 -16 -193l-139 -1030h-205zM545 1567q2 123 55 185.5t129 55.5q70 -6 157 -55 t136 -55q57 -6 85 19.5t36 82.5l90 -6q-2 -119 -52.5 -181.5t-130 -56t-169.5 57.5t-127 55q-57 6 -84 -21.5t-35 -88.5z" />
<glyph unicode="&#xd2;" horiz-adv-x="1366" d="M135 715q53 401 199 563t459 162q301 0 413.5 -169t55.5 -573q-55 -408 -199.5 -566.5t-450.5 -158.5q-301 0 -416.5 167t-60.5 575zM348 698q-43 -311 13.5 -426.5t254.5 -115.5q201 0 294.5 119.5t138.5 439.5q45 317 -11.5 429.5t-255.5 112.5q-205 0 -296 -117.5 t-138 -441.5zM453 1737l106 141l363 -301l-70 -90z" />
<glyph unicode="&#xd3;" horiz-adv-x="1366" d="M135 715q53 401 199 563t459 162q301 0 413.5 -169t55.5 -573q-55 -408 -199.5 -566.5t-450.5 -158.5q-301 0 -416.5 167t-60.5 575zM348 698q-43 -311 13.5 -426.5t254.5 -115.5q201 0 294.5 119.5t138.5 439.5q45 317 -11.5 429.5t-255.5 112.5q-205 0 -296 -117.5 t-138 -441.5zM678 1579l401 301l95 -154l-437 -239z" />
<glyph unicode="&#xd4;" horiz-adv-x="1366" d="M135 715q53 401 199 563t459 162q301 0 413.5 -169t55.5 -573q-55 -408 -199.5 -566.5t-450.5 -158.5q-301 0 -416.5 167t-60.5 575zM348 698q-43 -311 13.5 -426.5t254.5 -115.5q201 0 294.5 119.5t138.5 439.5q45 317 -11.5 429.5t-255.5 112.5q-205 0 -296 -117.5 t-138 -441.5zM479 1577l303 264h140l256 -276l-74 -78l-246 207h-16l-305 -203z" />
<glyph unicode="&#xd5;" horiz-adv-x="1366" d="M135 715q53 401 199 563t459 162q301 0 413.5 -169t55.5 -573q-55 -408 -199.5 -566.5t-450.5 -158.5q-301 0 -416.5 167t-60.5 575zM348 698q-43 -311 13.5 -426.5t254.5 -115.5q201 0 294.5 119.5t138.5 439.5q45 317 -11.5 429.5t-255.5 112.5q-205 0 -296 -117.5 t-138 -441.5zM489 1567q4 123 56.5 185.5t128.5 55.5q72 -6 159 -55t134 -55q59 -6 86.5 19.5t36.5 82.5l90 -6q-2 -119 -53.5 -181.5t-131.5 -56t-170 57.5t-125 55q-57 6 -84.5 -21.5t-35.5 -88.5z" />
<glyph unicode="&#xd6;" horiz-adv-x="1366" d="M135 715q53 401 199 563t459 162q301 0 413.5 -169t55.5 -573q-55 -408 -199.5 -566.5t-450.5 -158.5q-301 0 -416.5 167t-60.5 575zM348 698q-43 -311 13.5 -426.5t254.5 -115.5q201 0 294.5 119.5t138.5 439.5q45 317 -11.5 429.5t-255.5 112.5q-205 0 -296 -117.5 t-138 -441.5zM567 1618l19 115q6 55 63 55h60q33 0 43 -13.5t6 -41.5l-17 -113q-6 -53 -59 -53h-66q-55 0 -49 51zM909 1618l19 115q10 55 63 55h60q59 0 51 -55l-19 -113q-6 -53 -59 -53h-66q-55 0 -49 51z" />
<glyph unicode="&#xd7;" horiz-adv-x="1073" d="M82 328l338 268l-258 268l110 109l269 -281l368 293l88 -127l-348 -278l254 -265l-106 -108l-269 278l-358 -284z" />
<glyph unicode="&#xd8;" horiz-adv-x="1366" d="M135 715q53 401 198.5 563t459.5 162q156 0 260 -43l92 149l94 -55l-92 -152q182 -162 115 -641q-55 -408 -199.5 -566.5t-450.5 -158.5q-164 0 -268 45l-88 -143l-92 55l88 146q-184 160 -117 639zM348 698q-47 -321 19 -434l585 965q-59 29 -170 28q-205 0 -296 -117.5 t-138 -441.5zM446 186q66 -31 170 -30q201 0 294.5 119.5t138.5 439.5q44 327 -15 438z" />
<glyph unicode="&#xd9;" horiz-adv-x="1359" d="M154 551l118 862h207l-123 -872q-31 -217 23.5 -301t226.5 -84q178 0 264 88t117 307l121 862h207l-125 -872q-43 -309 -176 -438.5t-402 -129.5q-276 0 -388.5 135.5t-69.5 442.5zM451 1737l106 141l363 -301l-70 -90z" />
<glyph unicode="&#xda;" horiz-adv-x="1359" d="M154 551l118 862h207l-123 -872q-31 -217 23.5 -301t226.5 -84q178 0 264 88t117 307l121 862h207l-125 -872q-43 -309 -176 -438.5t-402 -129.5q-276 0 -388.5 135.5t-69.5 442.5zM676 1579l401 301l94 -154l-436 -239z" />
<glyph unicode="&#xdb;" horiz-adv-x="1359" d="M154 551l118 862h207l-123 -872q-31 -217 23.5 -301t226.5 -84q178 0 264 88t117 307l121 862h207l-125 -872q-43 -309 -176 -438.5t-402 -129.5q-276 0 -388.5 135.5t-69.5 442.5zM477 1577l303 264h140l256 -276l-74 -78l-246 207h-16l-305 -203z" />
<glyph unicode="&#xdc;" horiz-adv-x="1359" d="M154 551l118 862h207l-123 -872q-31 -217 23.5 -301t226.5 -84q178 0 264 88t117 307l121 862h207l-125 -872q-43 -309 -176 -438.5t-402 -129.5q-276 0 -388.5 135.5t-69.5 442.5zM565 1618l19 115q6 55 63 55h60q59 0 49 -55l-17 -113q-6 -53 -59 -53h-66q-55 0 -49 51 zM907 1618l19 115q8 55 63 55h60q61 0 51 -55l-19 -113q-6 -53 -59 -53h-66q-55 0 -49 51z" />
<glyph unicode="&#xdd;" horiz-adv-x="1169" d="M129 1413h207l203 -584q29 -90 36 -163h19q27 84 82 170l364 577h224l-598 -926l-68 -487h-207l72 498zM571 1579l402 301l94 -154l-436 -239z" />
<glyph unicode="&#xde;" horiz-adv-x="1210" d="M86 0l199 1413h204l-34 -250q76 4 276 4q246 0 345.5 -101t62.5 -359t-145.5 -351.5t-344.5 -93.5q-162 0 -319 19l-39 -281h-205zM352 438h273q156 2 221 59.5t90 223.5q20 164 -22 217t-189 53q-215 0 -295 -2z" />
<glyph unicode="&#xdf;" horiz-adv-x="1386" d="M-242 -391l31 147h154q96 0 137 32t55 128l133 930h-182l20 141l183 12l18 121q12 92 42 157.5t70 104.5t103.5 61.5t130 30t160.5 7.5q270 0 371.5 -63.5t79.5 -219.5q-12 -80 -56.5 -141.5t-152.5 -126.5q-16 -10 -57.5 -33t-58.5 -34t-43 -30.5t-39 -39t-17 -41.5 q-4 -25 9 -47.5t30.5 -35.5t62.5 -42l188 -121q90 -59 123 -115.5t21 -161.5q-20 -150 -114.5 -201t-287.5 -51q-150 0 -327 23l24 152q131 -8 265 -9q125 0 178 21.5t61 91.5q6 51 -15.5 77.5t-80.5 65.5l-197 125q-152 98 -131 234q6 45 25.5 80.5t61.5 69.5t75 54.5 t100 59.5q84 51 119 90t41 88q8 61 -39 90t-205 29q-172 0 -239.5 -46t-85.5 -181l-170 -1207q-23 -150 -105 -221.5t-233 -71.5q-102 0 -236 17z" />
<glyph unicode="&#xe0;" d="M96 512q23 166 64 271.5t108.5 156.5t139 68.5t184.5 17.5q244 0 489 -53l-139 -973h-156l9 184q-180 -209 -430 -209q-182 0 -246 119t-23 418zM287.5 211q21.5 -64 118.5 -64q94 0 184 52t203 161l71 496q-188 4 -211 4q-106 0 -161.5 -10t-97.5 -52t-61.5 -107.5 t-37.5 -192.5q-29 -223 -7.5 -287zM303 1370l107 139l362 -301l-70 -88z" />
<glyph unicode="&#xe1;" d="M96 512q23 166 64 271.5t108.5 156.5t139 68.5t184.5 17.5q244 0 489 -53l-139 -973h-156l9 184q-180 -209 -430 -209q-182 0 -246 119t-23 418zM287.5 211q21.5 -64 118.5 -64q94 0 184 52t203 161l71 496q-188 4 -211 4q-106 0 -161.5 -10t-97.5 -52t-61.5 -107.5 t-37.5 -192.5q-29 -223 -7.5 -287zM528 1212l402 299l94 -151l-436 -240z" />
<glyph unicode="&#xe2;" d="M96 512q23 166 64 271.5t108.5 156.5t139 68.5t184.5 17.5q244 0 489 -53l-139 -973h-156l9 184q-180 -209 -430 -209q-182 0 -246 119t-23 418zM287.5 211q21.5 -64 118.5 -64q94 0 184 52t203 161l71 496q-188 4 -211 4q-106 0 -161.5 -10t-97.5 -52t-61.5 -107.5 t-37.5 -192.5q-29 -223 -7.5 -287zM330 1210l303 265h141l254 -279l-74 -78l-245 207h-17l-305 -201z" />
<glyph unicode="&#xe3;" d="M96 512q23 166 64 271.5t108.5 156.5t139 68.5t184.5 17.5q244 0 489 -53l-139 -973h-156l9 184q-180 -209 -430 -209q-182 0 -246 119t-23 418zM287.5 211q21.5 -64 118.5 -64q94 0 184 52t203 161l71 496q-188 4 -211 4q-106 0 -161.5 -10t-97.5 -52t-61.5 -107.5 t-37.5 -192.5q-29 -223 -7.5 -287zM340 1200q4 123 56.5 184.5t127.5 55.5q72 -6 159 -54.5t136 -54.5q57 -8 85 18t36 85l90 -9q-2 -119 -53 -180t-129 -55q-82 6 -172 56t-125 57q-57 6 -85 -22t-36 -89z" />
<glyph unicode="&#xe4;" d="M96 512q23 166 64 271.5t108.5 156.5t139 68.5t184.5 17.5q244 0 489 -53l-139 -973h-156l9 184q-180 -209 -430 -209q-182 0 -246 119t-23 418zM287.5 211q21.5 -64 118.5 -64q94 0 184 52t203 161l71 496q-188 4 -211 4q-106 0 -161.5 -10t-97.5 -52t-61.5 -107.5 t-37.5 -192.5q-29 -223 -7.5 -287zM418 1251l18 113q6 55 64 55h59q33 0 44 -12t7 -43l-18 -111q-7 -53 -60 -53h-65q-55 0 -49 51zM760 1251l18 113q8 55 64 55h59q33 0 44 -12t7 -43l-18 -111q-7 -53 -60 -53h-65q-55 0 -49 51z" />
<glyph unicode="&#xe5;" d="M96 512q23 166 64 271.5t108.5 156.5t139 68.5t184.5 17.5q244 0 489 -53l-139 -973h-156l9 184q-180 -209 -430 -209q-182 0 -246 119t-23 418zM287.5 211q21.5 -64 118.5 -64q94 0 184 52t203 161l71 496q-188 4 -211 4q-106 0 -161.5 -10t-97.5 -52t-61.5 -107.5 t-37.5 -192.5q-29 -223 -7.5 -287zM465 1319q10 90 71.5 151.5t159.5 61.5q100 0 162 -64.5t49 -162.5q-10 -90 -71.5 -150.5t-159.5 -60.5q-102 0 -161.5 64.5t-49.5 160.5zM571 1313q-6 -55 25 -87t82 -32t85 34t38 89q4 51 -23.5 83t-79.5 32q-53 0 -87 -33t-40 -86z" />
<glyph unicode="&#xe6;" horiz-adv-x="1789" d="M96 512q23 168 64 272.5t108.5 156.5t138 68.5t183.5 16.5q213 0 444 -45q115 45 299 45q233 0 316.5 -82t60.5 -242q-23 -145 -113 -209.5t-276 -78.5l-348 -31q0 -141 60.5 -191.5t191.5 -50.5q139 0 360 25l12 -133q-139 -57 -403 -58q-322 0 -397 215 q-182 -215 -437 -215q-180 0 -243.5 121t-20.5 416zM290.5 212q20.5 -65 110.5 -65q92 0 178.5 47.5t190.5 147.5q-4 94 10 184q27 211 101 328q-49 0 -128 3t-102 3q-195 0 -256 -62.5t-94 -299.5q-31 -221 -10.5 -286zM987 530l332 31q94 6 137 40t57 118 q12 96 -31.5 118.5t-178.5 22.5q-158 0 -221.5 -64.5t-94.5 -265.5z" />
<glyph unicode="&#xe7;" horiz-adv-x="995" d="M90 508q39 287 160 402.5t379 115.5q201 0 327 -53l-30 -123q-123 8 -267 8q-180 0 -258.5 -72.5t-105.5 -292t23.5 -286t220.5 -66.5q174 0 301 23l14 -135q-154 -53 -352 -54q-264 0 -358.5 123t-53.5 410zM205 -498l37 105q78 -2 136 37t71 104q6 29 -13.5 38 t-95.5 11l22 92q137 12 191.5 -16.5t36.5 -124.5q-20 -131 -128 -198.5t-257 -47.5z" />
<glyph unicode="&#xe8;" horiz-adv-x="1103" d="M92 526q39 289 159 394.5t394 105.5q233 0 317.5 -82t61.5 -242q-25 -145 -115 -209.5t-276 -78.5l-346 -31q-2 -141 59.5 -191.5t192.5 -50.5q139 0 368 25l13 -133q-145 -57 -412 -58q-256 0 -354.5 134.5t-61.5 416.5zM293 1370l106 139l363 -301l-70 -88zM299 530 l334 31q94 6 137 40t55 118q12 96 -31.5 118.5t-179.5 22.5q-156 0 -220 -64.5t-95 -265.5z" />
<glyph unicode="&#xe9;" horiz-adv-x="1103" d="M92 526q39 289 159 394.5t394 105.5q233 0 317.5 -82t61.5 -242q-25 -145 -115 -209.5t-276 -78.5l-346 -31q-2 -141 59.5 -191.5t192.5 -50.5q139 0 368 25l13 -133q-145 -57 -412 -58q-256 0 -354.5 134.5t-61.5 416.5zM299 530l334 31q94 6 137 40t55 118 q12 96 -31.5 118.5t-179.5 22.5q-156 0 -220 -64.5t-95 -265.5zM516 1212l402 299l94 -151l-437 -240z" />
<glyph unicode="&#xea;" horiz-adv-x="1103" d="M92 526q39 289 159 394.5t394 105.5q233 0 317.5 -82t61.5 -242q-25 -145 -115 -209.5t-276 -78.5l-346 -31q-2 -141 59.5 -191.5t192.5 -50.5q139 0 368 25l13 -133q-145 -57 -412 -58q-256 0 -354.5 134.5t-61.5 416.5zM299 530l334 31q94 6 137 40t55 118 q12 96 -31.5 118.5t-179.5 22.5q-156 0 -220 -64.5t-95 -265.5zM319 1210l302 265h141l254 -279l-72 -78l-248 207h-16l-305 -201z" />
<glyph unicode="&#xeb;" horiz-adv-x="1103" d="M92 526q39 289 159 394.5t394 105.5q233 0 317.5 -82t61.5 -242q-25 -145 -115 -209.5t-276 -78.5l-346 -31q-2 -141 59.5 -191.5t192.5 -50.5q139 0 368 25l13 -133q-145 -57 -412 -58q-256 0 -354.5 134.5t-61.5 416.5zM299 530l334 31q94 6 137 40t55 118 q12 96 -31.5 118.5t-179.5 22.5q-156 0 -220 -64.5t-95 -265.5zM406 1251l18 113q8 55 63 55h60q33 0 44 -12t7 -43l-18 -111q-7 -53 -60 -53h-65q-55 0 -49 51zM750 1251l16 113q8 55 65 55h60q33 0 43 -12t6 -43l-18 -111q-3 -53 -58 -53h-67q-53 0 -47 51z" />
<glyph unicode="&#xec;" horiz-adv-x="516" d="M-23 1370l107 139l362 -301l-69 -88zM74 0l141 999h199l-142 -999h-198z" />
<glyph unicode="&#xed;" horiz-adv-x="516" d="M74 0l141 999h199l-142 -999h-198zM203 1212l401 299l94 -151l-436 -240z" />
<glyph unicode="&#xee;" horiz-adv-x="516" d="M4 1210l303 265h139l256 -279l-73 -78l-246 207h-16l-306 -201zM74 0l141 999h199l-142 -999h-198z" />
<glyph unicode="&#xef;" horiz-adv-x="516" d="M74 0l141 999h199l-142 -999h-198zM92 1251l19 113q6 55 63 55h59q33 0 43.5 -12t6.5 -43l-19 -111q-2 -53 -57 -53h-66q-55 0 -49 51zM434 1251l19 113q8 55 63 55h59q33 0 44.5 -12t7.5 -43l-19 -111q-6 -53 -59 -53h-66q-55 0 -49 51z" />
<glyph unicode="&#xf0;" horiz-adv-x="1140" d="M84 455q59 465 461 465q178 0 284 -103q-2 244 -106 354l-176 -122l-53 75l149 109q-102 57 -301 53l31 144q256 10 415 -93l170 121l56 -80l-148 -104q215 -211 152 -701q-39 -303 -161 -451.5t-384 -148.5q-236 0 -329 118t-60 364zM289 440q-23 -164 22 -232.5 t172 -68.5q156 0 228.5 104.5t103.5 352.5q8 63 10 88q-98 68 -233 68q-141 0 -210 -76t-93 -236z" />
<glyph unicode="&#xf1;" horiz-adv-x="1187" d="M66 0l141 999h158l-11 -215q270 242 473 242q127 0 192.5 -72.5t45.5 -208.5l-107 -745h-196l96 696q12 94 -7.5 128t-84.5 34q-84 0 -175 -51t-239 -168l-88 -639h-198zM358 1200q2 123 55.5 184.5t129.5 55.5q70 -6 156.5 -54.5t136.5 -54.5q57 -8 84.5 18t35.5 85 l91 -9q-2 -119 -52.5 -180t-130.5 -55t-170 56t-127 57q-55 6 -82.5 -22t-35.5 -89z" />
<glyph unicode="&#xf2;" horiz-adv-x="1159" d="M90 506q39 283 161 401.5t378 118.5q258 0 356 -124t57 -410q-39 -283 -161.5 -401t-374.5 -118q-256 0 -355.5 124t-60.5 409zM295 492q-29 -207 15 -280t196 -73q160 0 231.5 79t100.5 288q31 207 -13 279.5t-196 72.5q-158 0 -230.5 -75.5t-103.5 -290.5zM295 1370 l106 139l363 -301l-70 -88z" />
<glyph unicode="&#xf3;" horiz-adv-x="1159" d="M90 506q39 283 161 401.5t378 118.5q258 0 356 -124t57 -410q-39 -283 -161.5 -401t-374.5 -118q-256 0 -355.5 124t-60.5 409zM295 492q-29 -207 15 -280t196 -73q160 0 231.5 79t100.5 288q31 207 -13 279.5t-196 72.5q-158 0 -230.5 -75.5t-103.5 -290.5zM520 1212 l402 299l94 -151l-436 -240z" />
<glyph unicode="&#xf4;" horiz-adv-x="1159" d="M90 506q39 283 161 401.5t378 118.5q258 0 356 -124t57 -410q-39 -283 -161.5 -401t-374.5 -118q-256 0 -355.5 124t-60.5 409zM295 492q-29 -207 15 -280t196 -73q160 0 231.5 79t100.5 288q31 207 -13 279.5t-196 72.5q-158 0 -230.5 -75.5t-103.5 -290.5zM322 1210 l303 265h139l256 -279l-74 -78l-246 207h-16l-305 -201z" />
<glyph unicode="&#xf5;" horiz-adv-x="1159" d="M90 506q39 283 161 401.5t378 118.5q258 0 356 -124t57 -410q-39 -283 -161.5 -401t-374.5 -118q-256 0 -355.5 124t-60.5 409zM295 492q-29 -207 15 -280t196 -73q160 0 231.5 79t100.5 288q31 207 -13 279.5t-196 72.5q-158 0 -230.5 -75.5t-103.5 -290.5zM332 1200 q4 123 56 184.5t128 55.5q72 -6 159 -54.5t134 -54.5q59 -8 87 17.5t36 85.5l90 -9q-2 -119 -53 -180t-131 -55t-170 56t-125 57q-57 6 -85 -22t-36 -89z" />
<glyph unicode="&#xf6;" horiz-adv-x="1159" d="M90 506q39 283 161 401.5t378 118.5q258 0 356 -124t57 -410q-39 -283 -161.5 -401t-374.5 -118q-256 0 -355.5 124t-60.5 409zM295 492q-29 -207 15 -280t196 -73q160 0 231.5 79t100.5 288q31 207 -13 279.5t-196 72.5q-158 0 -230.5 -75.5t-103.5 -290.5zM410 1251 l18 113q7 55 64 55h59q33 0 43 -12t6 -43l-16 -111q-6 -53 -60 -53h-65q-55 0 -49 51zM752 1251l18 113q9 55 64 55h59q33 0 44 -12t7 -43l-18 -111q-6 -53 -60 -53h-65q-55 0 -49 51z" />
<glyph unicode="&#xf7;" horiz-adv-x="1153" d="M113 530l22 148h905l-20 -148h-907zM422 199l12 92q8 69 74 69h51q82 0 70 -77l-15 -95q-8 -68 -77 -67h-52q-76 0 -63 78zM522 920l13 94q7 69 77 69h52q78 0 65 -75l-12 -97q-8 -66 -76 -65h-51q-80 0 -68 74z" />
<glyph unicode="&#xf8;" horiz-adv-x="1159" d="M90 506q39 283 161 401.5t378 118.5q113 0 196 -25l97 162l86 -51l-90 -149q176 -111 124 -471q-39 -283 -161.5 -401t-374.5 -118q-100 0 -178 19l-92 -152l-84 49l81 138q-197 109 -143 479zM295 492q-33 -238 37 -306l399 662q-33 10 -102 10q-158 0 -230.5 -75.5 t-103.5 -290.5zM422 145q37 -6 84 -6q160 0 231.5 79t100.5 288q32 221 -21 291z" />
<glyph unicode="&#xf9;" horiz-adv-x="1165" d="M96 252l105 747h198l-100 -696q-12 -88 12.5 -124t94.5 -36q84 0 163.5 49.5t218.5 172.5l86 634h197l-139 -999h-154l13 209q-244 -236 -455 -236q-135 0 -196.5 75t-43.5 204zM307 1378l107 142l362 -301l-69 -91z" />
<glyph unicode="&#xfa;" horiz-adv-x="1165" d="M96 252l105 747h198l-100 -696q-12 -88 12.5 -124t94.5 -36q84 0 163.5 49.5t218.5 172.5l86 634h197l-139 -999h-154l13 209q-244 -236 -455 -236q-135 0 -196.5 75t-43.5 204zM532 1221l402 301l92 -154l-436 -240z" />
<glyph unicode="&#xfb;" horiz-adv-x="1165" d="M96 252l105 747h198l-100 -696q-12 -88 12.5 -124t94.5 -36q84 0 163.5 49.5t218.5 172.5l86 634h197l-139 -999h-154l13 209q-244 -236 -455 -236q-135 0 -196.5 75t-43.5 204zM334 1219l301 264h141l254 -277l-72 -78l-245 207h-17l-307 -202z" />
<glyph unicode="&#xfc;" horiz-adv-x="1165" d="M96 252l105 747h198l-100 -696q-12 -88 12.5 -124t94.5 -36q84 0 163.5 49.5t218.5 172.5l86 634h197l-139 -999h-154l13 209q-244 -236 -455 -236q-135 0 -196.5 75t-43.5 204zM420 1260l18 114q8 55 64 56h59q61 0 51 -56l-18 -112q-6 -54 -59 -54h-66q-55 0 -49 52z M764 1260l18 114q6 55 64 56h59q33 0 43 -13.5t6 -42.5l-16 -112q-6 -54 -59 -54h-66q-55 0 -49 52z" />
<glyph unicode="&#xfd;" horiz-adv-x="1116" d="M72 -279q131 31 229 92.5t188 186.5h-92q-47 0 -79.5 25.5t-41.5 70.5l-192 903h209l151 -809q6 -35 41 -34h101q8 14 22.5 41.5t18.5 35.5q180 375 254 766h206q-111 -487 -288 -825q-160 -303 -316.5 -430t-373.5 -164zM467 1212l401 299l93 -151l-437 -240z" />
<glyph unicode="&#xfe;" d="M10 -408l258 1842h197l-49 -355q-18 -141 -43 -229l4 -12q182 186 414 186q170 0 237.5 -118t24.5 -419q-23 -168 -64 -272t-106.5 -156.5t-135 -69t-178.5 -16.5q-129 0 -307 25q-6 -63 -18 -139l-37 -267h-197zM285 143q193 -4 211 -4q197 0 258 61.5t94 301.5 q31 223 10.5 286.5t-113.5 63.5q-96 0 -187 -53t-206 -164z" />
<glyph unicode="&#xff;" horiz-adv-x="1116" d="M72 -279q131 31 229 92.5t188 186.5h-92q-47 0 -79.5 25.5t-41.5 70.5l-192 903h209l151 -809q6 -35 41 -34h101q8 14 22.5 41.5t18.5 35.5q180 375 254 766h206q-111 -487 -288 -825q-160 -303 -316.5 -430t-373.5 -164zM354 1251l19 113q8 55 63 55h60q33 0 44 -12 t7 -43l-19 -111q-6 -53 -57 -53h-68q-51 0 -49 51zM698 1251l19 113q6 55 63 55h60q33 0 44 -12t7 -43l-19 -111q-6 -53 -59 -53h-65q-55 0 -50 51z" />
<glyph unicode="&#x152;" horiz-adv-x="1894" d="M135 715q57 412 200.5 568.5t455.5 156.5q186 0 335 -62q74 39 174 39q420 0 605 -16l-29 -160h-553q-63 0 -96 -30.5t-41 -102.5l-39 -285h592l-21 -161h-592l-51 -363q-8 -70 15.5 -98.5t93.5 -28.5h542l-6 -160q-174 -16 -561 -16q-125 0 -203 49q-164 -72 -348 -72 q-322 0 -427 163t-46 579zM348 698q-45 -309 11.5 -425.5t252.5 -116.5q139 0 254 32q-6 54 2 105l121 874q8 45 17 66q-104 25 -215 24q-207 0 -302.5 -119.5t-140.5 -439.5z" />
<glyph unicode="&#x153;" horiz-adv-x="1849" d="M88 506q41 285 163 402.5t378 117.5q258 0 354 -123q117 123 410 123q233 0 317 -82t62 -242q-25 -145 -115 -209.5t-275 -78.5l-348 -31q0 -141 61.5 -191.5t192.5 -50.5q140 0 357 25l14 -133q-139 -57 -404 -58q-254 0 -356 136q-123 -137 -393 -138 q-256 0 -356.5 124t-61.5 409zM295 492q-29 -205 15 -279t196 -74q158 0 230.5 79t101.5 288q31 207 -13.5 279.5t-195.5 72.5q-158 0 -230.5 -75.5t-103.5 -290.5zM1049 530l331 31q94 6 137.5 40t57.5 118q4 41 -2 67.5t-17.5 41t-46 21.5t-61.5 8t-86 1 q-156 0 -219 -63.5t-94 -264.5z" />
<glyph unicode="&#x178;" horiz-adv-x="1169" d="M129 1413h207l203 -584q29 -90 36 -163h19q27 84 82 170l364 577h224l-598 -926l-68 -487h-207l72 498zM461 1618l18 115q8 55 64 55h59q57 0 51 -55l-18 -113q-7 -53 -60 -53h-65q-55 0 -49 51zM803 1618l18 115q10 55 64 55h61q57 0 49 -55l-18 -113q-6 -53 -57 -53 h-68q-51 0 -49 51z" />
<glyph unicode="&#x2c6;" horiz-adv-x="870" d="M197 1198l301 264h141l254 -276l-72 -78l-246 207h-18l-305 -201z" />
<glyph unicode="&#x2dc;" horiz-adv-x="866" d="M203 1196q4 123 56 185.5t128 56.5q70 -6 157 -54.5t136 -54.5q59 -8 87 17.5t36 85.5l90 -9q-2 -119 -53.5 -180t-131 -55t-169.5 56t-125 56q-57 6 -85 -21.5t-36 -90.5z" />
<glyph unicode="&#x2000;" horiz-adv-x="960" />
<glyph unicode="&#x2001;" horiz-adv-x="1921" />
<glyph unicode="&#x2002;" horiz-adv-x="960" />
<glyph unicode="&#x2003;" horiz-adv-x="1921" />
<glyph unicode="&#x2004;" horiz-adv-x="640" />
<glyph unicode="&#x2005;" horiz-adv-x="480" />
<glyph unicode="&#x2006;" horiz-adv-x="320" />
<glyph unicode="&#x2007;" horiz-adv-x="320" />
<glyph unicode="&#x2008;" horiz-adv-x="240" />
<glyph unicode="&#x2009;" horiz-adv-x="384" />
<glyph unicode="&#x200a;" horiz-adv-x="106" />
<glyph unicode="&#x2010;" horiz-adv-x="901" d="M119 442l20 152h621l-21 -152h-620z" />
<glyph unicode="&#x2011;" horiz-adv-x="901" d="M119 442l20 152h621l-21 -152h-620z" />
<glyph unicode="&#x2012;" horiz-adv-x="901" d="M119 442l20 152h621l-21 -152h-620z" />
<glyph unicode="&#x2013;" horiz-adv-x="1198" d="M119 442l20 152h916l-21 -152h-915z" />
<glyph unicode="&#x2014;" horiz-adv-x="1818" d="M119 442l20 152h1536l-20 -152h-1536z" />
<glyph unicode="&#x2018;" horiz-adv-x="452" d="M188 1061l17 121q18 135 123 301l96 -31q-57 -166 -70 -229q68 4 62 -60l-19 -108q-8 -37 -25.5 -50.5t-62.5 -13.5h-57q-78 0 -64 70z" />
<glyph unicode="&#x2019;" horiz-adv-x="448" d="M203 1004q57 166 69 229q-31 -2 -47 14.5t-14 42.5l18 111q8 37 25.5 50t62.5 13h60q76 0 61 -71l-16 -121q-20 -139 -123 -299z" />
<glyph unicode="&#x201a;" horiz-adv-x="475" d="M47 -227q57 166 70 229q-33 -2 -49.5 14.5t-12.5 42.5l17 111q10 37 27.5 50t62.5 13h59q76 0 62 -71l-17 -121q-20 -139 -123 -299z" />
<glyph unicode="&#x201c;" horiz-adv-x="780" d="M188 1061l17 121q18 135 123 301l96 -31q-57 -166 -70 -229q68 4 62 -60l-19 -108q-8 -37 -25.5 -50.5t-62.5 -13.5h-57q-78 0 -64 70zM516 1061l16 121q18 135 123 301l97 -31q-57 -166 -70 -229q68 4 61 -60l-16 -108q-10 -37 -27.5 -50.5t-62.5 -13.5h-57 q-76 0 -64 70z" />
<glyph unicode="&#x201d;" horiz-adv-x="776" d="M203 1004q57 166 69 229q-31 -2 -47 14.5t-14 42.5l18 111q8 37 25.5 50t62.5 13h60q76 0 61 -71l-16 -121q-20 -139 -123 -299zM530 1004q57 166 70 229q-31 -2 -47 14.5t-12 42.5l16 111q8 37 25.5 50t62.5 13h60q76 0 61 -71l-16 -121q-20 -137 -121 -299z" />
<glyph unicode="&#x201e;" horiz-adv-x="802" d="M47 -229q57 166 70 229q-33 -2 -49.5 14.5t-12.5 42.5l17 111q10 37 27.5 50t62.5 13h57q76 0 64 -69l-17 -123q-18 -133 -123 -299zM375 -229q57 166 69 229q-33 -2 -49 14.5t-12 42.5l16 111q10 37 27.5 50t62.5 13h58q76 0 63 -69l-16 -123q-18 -133 -123 -299z" />
<glyph unicode="&#x2022;" horiz-adv-x="743" d="M170 543l4 26q14 100 56.5 136t146.5 36h26q98 0 134 -41t22 -139l-4 -29q-14 -104 -55 -141t-142 -37h-26q-104 0 -140 42t-22 147z" />
<glyph unicode="&#x2026;" horiz-adv-x="1751" d="M45 76l16 110q6 68 76 68h66q76 0 67 -76l-16 -108q-6 -70 -76 -70h-65q-80 0 -68 76zM686 76l16 110q8 68 76 68h66q80 0 67 -76l-14 -108q-8 -70 -78 -70h-63q-82 0 -70 76zM1327 76l16 110q8 68 78 68h66q78 0 65 -76l-14 -108q-8 -70 -76 -70h-65q-78 0 -70 76z" />
<glyph unicode="&#x202f;" horiz-adv-x="384" />
<glyph unicode="&#x2039;" horiz-adv-x="606" d="M72 502l4 45l381 395l80 -72l-304 -356l218 -371l-99 -65z" />
<glyph unicode="&#x203a;" horiz-adv-x="608" d="M45 152l305 356l-217 369l96 65l281 -424l-4 -45l-381 -395z" />
<glyph unicode="&#x205f;" horiz-adv-x="480" />
<glyph unicode="&#x20ac;" horiz-adv-x="1296" d="M88 528l18 121h164l9 66l12 80h-164l16 118h172q68 268 216.5 396.5t412.5 128.5q184 0 338 -43l-33 -160q-145 29 -319 18q-164 -6 -256 -86t-142 -254h510l-34 -118h-504q-4 -16 -9.5 -50t-7.5 -49l-6 -47h453l-35 -121h-426q-6 -188 59.5 -276t221.5 -92 q188 -10 362 22l8 -159q-162 -47 -362 -48q-268 0 -389 136.5t-111 416.5h-174z" />
<glyph unicode="&#x2122;" horiz-adv-x="1968" d="M225 1309l17 116h669l-16 -116h-264l-92 -662h-142l92 662h-264zM899 647l131 729q8 49 53 49h144q47 0 53 -49l84 -432q4 -16 8 -54t6 -56h23q18 66 41 108l203 442q18 41 59 41h147q25 0 38.5 -16t11.5 -43l-70 -719h-129l61 670h-22l-246 -533q-20 -41 -59 -41h-105 q-49 0 -53 50l-102 524h-25l-121 -670h-131z" />
<glyph unicode="&#x25fc;" horiz-adv-x="1003" d="M0 0v1004h1004v-1004h-1004z" />
<glyph unicode="&#xfb01;" horiz-adv-x="1257" d="M-242 -391l31 147h154q96 0 137 32t55 128l131 930h-178l18 143l183 10l20 154q25 160 101.5 237.5t230.5 77.5q164 0 248 -14l-15 -147h-169q-94 0 -139.5 -42t-59.5 -143l-19 -123h672l-141 -999h-199l119 846h-471l-135 -961q-41 -293 -326 -293q-111 0 -248 17z M987 1257l17 115q6 53 61 53h94q29 0 43.5 -16t9.5 -45l-14 -115q-8 -55 -61 -55h-95q-29 0 -44 17.5t-11 45.5z" />
<glyph unicode="&#xfb02;" horiz-adv-x="1380" d="M-242 -391l31 147h154q96 0 137 32t55 128l131 930h-178l18 143l183 10l20 154q25 160 101.5 238.5t230.5 76.5q436 0 598 -24l-162 -1184q-14 -125 107 -125h98l8 -129q-55 -25 -188 -24q-121 0 -181.5 64.5t-46.5 176.5l152 1086h-321q-94 2 -139.5 -41t-59.5 -146 l-19 -123h289l-20 -153h-289l-135 -961q-41 -293 -326 -293q-111 0 -248 17z" />
</font>
</defs>
</svg>
