<?xml version="1.0" standalone="no"?>
<!DOCTYPE svg PUBLIC "-//W3C//DTD SVG 1.1//EN" "http://www.w3.org/Graphics/SVG/1.1/DTD/svg11.dtd" >
<svg xmlns="http://www.w3.org/2000/svg" xmlns:xlink="http://www.w3.org/1999/xlink" version="1.1">
<metadata></metadata>
<defs>
<font id="exo_2light_italic" horiz-adv-x="1359" >
<font-face units-per-em="2048" ascent="1638" descent="-410" />
<missing-glyph horiz-adv-x="462" />
<glyph horiz-adv-x="0" />
<glyph unicode="&#xd;" horiz-adv-x="681" />
<glyph unicode=" "  horiz-adv-x="462" />
<glyph unicode="&#x09;" horiz-adv-x="462" />
<glyph unicode="&#xa0;" horiz-adv-x="462" />
<glyph unicode="!" horiz-adv-x="540" d="M125 53l18 117q7 49 54 49h36q55 0 46 -53l-17 -119q-2 -47 -53 -47h-37q-53 0 -47 53zM195 426l34 346l93 651h129l-93 -651l-59 -346h-104z" />
<glyph unicode="&#x22;" horiz-adv-x="696" d="M213 979l53 434h109l-70 -434h-92zM496 979l51 434h110l-69 -434h-92z" />
<glyph unicode="#" horiz-adv-x="1382" d="M78 446l28 89h238l125 399h-238l29 88h236l125 391h104l-123 -391h408l125 391h104l-123 -391h227l-28 -88h-225l-127 -399h227l-31 -89h-223l-141 -446h-105l139 446h-407l-141 -446h-105l139 446h-237zM449 535h409l125 399h-408z" />
<glyph unicode="$" horiz-adv-x="1153" d="M70 8l16 101q256 -12 350 -13l119 563l-135 54q-145 57 -195.5 145t-31.5 238q16 115 55 185.5t107.5 103t141 43t187.5 8.5h39l41 204h72l-43 -206q160 -6 297 -33l-17 -96q-195 10 -305 10l-113 -553l113 -45q158 -61 208 -146.5t28 -242.5q-31 -217 -146 -284 t-375 -67l-51 -243h-72l52 243q-180 4 -342 31zM328 1081q-12 -109 18.5 -160t134.5 -94l107 -41l110 531h-30q-72 0 -107 -2t-83 -13.5t-72.5 -36t-47 -70.5t-30.5 -114zM508 96q186 4 262 50.5t98 195.5q14 115 -16.5 165t-140.5 93l-90 35z" />
<glyph unicode="%" horiz-adv-x="1818" d="M162 1026q31 223 112.5 317.5t255.5 94.5q180 0 242 -99.5t29 -324.5q-31 -223 -115 -317.5t-256 -94.5q-178 0 -238.5 99.5t-29.5 324.5zM262 1014q-25 -180 10 -254t154 -74q133 0 191.5 76t82.5 264q25 184 -8.5 256t-154.5 72q-135 0 -191.5 -75t-83.5 -265zM299 0 l1139 1413h104l-1136 -1413h-107zM1049 408q31 223 112.5 317t255.5 94q182 0 242.5 -99t28.5 -325q-31 -223 -115 -318t-256 -95q-178 0 -238.5 99t-29.5 327zM1149 395q-25 -182 10 -255.5t154 -73.5q133 0 191.5 75.5t82.5 266.5q25 182 -9 254.5t-155 72.5 q-135 0 -191 -74.5t-83 -265.5z" />
<glyph unicode="&#x26;" horiz-adv-x="1570" d="M98 362q27 178 118 269.5t257 97.5l2 8q-139 10 -188 95.5t-25 240.5q37 213 155 286t367 73q182 0 336 -46l-22 -98q-129 31 -312 31q-201 0 -282.5 -52.5t-108.5 -217.5q-27 -154 37 -209.5t248 -55.5h450q12 121 9 283h121q0 -174 -11 -283h254l-16 -104h-250 q-35 -227 -131 -385q-100 -164 -252 -238.5t-365 -79.5q-236 -4 -328.5 83t-62.5 302zM242 371q-29 -162 29.5 -219.5t209.5 -57.5q186 0 310 62.5t206 191.5q86 129 119 332h-448q-211 -2 -303.5 -62.5t-122.5 -246.5z" />
<glyph unicode="'" horiz-adv-x="413" d="M213 979l53 434h109l-70 -434h-92z" />
<glyph unicode="(" horiz-adv-x="727" d="M125 649q55 389 212.5 624.5t440.5 344.5l15 -68q-225 -106 -356.5 -328.5t-182.5 -586.5q-49 -352 16.5 -574.5t259.5 -332.5l-18 -66q-252 111 -347 353.5t-40 633.5z" />
<glyph unicode=")" horiz-adv-x="727" d="M-55 -270q440 215 540 917q101 704 -276 905l18 66q250 -109 347.5 -350.5t39.5 -638.5q-55 -387 -212.5 -621.5t-440.5 -345.5z" />
<glyph unicode="*" horiz-adv-x="919" d="M193 1145l34 80l240 -92l-6 -37l-19 -25zM258 831l238 261l34 321h84l-59 -323l166 -265l-72 -49l-127 256l-200 -254zM594 1096l2 37l260 90l16 -84l-264 -68z" />
<glyph unicode="+" horiz-adv-x="1124" d="M115 561l14 101h389l51 368h105l-53 -368h391l-17 -101h-389l-51 -371h-102l53 371h-391z" />
<glyph unicode="," horiz-adv-x="448" d="M53 -238q45 154 60 240q-43 0 -37 45l18 123q4 29 16.5 39t43.5 10h43q49 0 41 -51l-19 -133q-18 -137 -100 -295z" />
<glyph unicode="-" horiz-adv-x="940" d="M137 465l15 102h628l-14 -102h-629z" />
<glyph unicode="." horiz-adv-x="446" d="M76 53l16 117q6 49 53 49h48q51 0 45 -53l-17 -119q-6 -47 -53 -47h-45q-57 0 -47 53z" />
<glyph unicode="/" horiz-adv-x="1052" d="M-35 -129l1020 1542h115l-1018 -1542h-117z" />
<glyph unicode="0" horiz-adv-x="1216" d="M156 713q53 387 181 556t382 169q260 0 345 -175.5t29.5 -562.5t-183.5 -556t-380 -169q-260 0 -345 175.5t-29 562.5zM285 700q-45 -330 7 -469t236 -139q193 0 290 143.5t145 477.5q47 330 -6.5 469t-239.5 139q-193 0 -289 -143.5t-143 -477.5z" />
<glyph unicode="1" horiz-adv-x="792" d="M145 1266l390 147h135l-199 -1413h-135l164 1176q12 74 24 112l-374 -119z" />
<glyph unicode="2" horiz-adv-x="1134" d="M31 0l10 86q8 41 27 59l510 500q164 160 243.5 276.5t89.5 225.5q12 109 -50 140.5t-210 31.5q-198 0 -413 -39l-7 104q238 53 424 54q215 0 314.5 -62.5t77.5 -240.5q-16 -131 -90 -247t-242 -280l-496 -485q74 4 227 4h517l-19 -127h-913z" />
<glyph unicode="3" horiz-adv-x="1122" d="M33 10l20 103q236 -27 377 -19q352 25 399 318q43 279 -262 280l-266 4l14 101l260 2q88 2 149.5 27.5t94.5 71.5t48.5 91t21.5 103q16 135 -40 181t-245 46q-176 -1 -352 -19l-8 103q221 35 385 35q236 0 323.5 -77t67.5 -255q-16 -135 -78.5 -236.5t-181.5 -119.5 l-4 -9q127 -18 177 -113.5t28 -240.5q-27 -176 -150 -288.5t-371 -123.5q-195 -10 -407 35z" />
<glyph unicode="4" horiz-adv-x="1234" d="M87 434.5q-36 67.5 11 140.5l535 838h137l-537 -850q-25 -39 -13.5 -62.5t48.5 -23.5h551l60 432l59 236h102l-94 -668h178l-14 -96l-178 -14l-51 -367h-129l51 367h-592q-88 0 -124 67.5z" />
<glyph unicode="5" horiz-adv-x="1085" d="M41 29l27 106q170 -47 331 -41q367 18 412 342q25 184 -74.5 240.5t-386.5 62.5l-96 9q-27 0 -43 19t-12 48l114 598h727l-22 -115h-610l-84 -440l133 -8q276 -12 394 -102.5t89 -323.5q-10 -78 -35.5 -144.5t-80 -137t-156 -115.5t-240.5 -52q-195 -8 -387 54z" />
<glyph unicode="6" horiz-adv-x="1161" d="M132 286.5q-11 159.5 26 407.5q35 240 86 389.5t132 226t172 102.5t234.5 26t278.5 -29l-21 -98q-102 12 -249 12q-158 0 -245 -43t-148.5 -172t-102.5 -383q162 184 399 190q203 6 284 -101t44 -365q-35 -238 -147.5 -356t-350.5 -118q-197 0 -289 76t-103 235.5z M276 600q-41 -291 6.5 -400.5t247.5 -109.5q172 0 254 93t109 280q27 190 -19 269t-208 73q-102 -4 -191.5 -47t-198.5 -158z" />
<glyph unicode="7" horiz-adv-x="1036" d="M180 1298l10 115h789q59 0 77.5 -29.5t-7.5 -83.5l-629 -1300h-137l583 1206q20 45 54 92h-740z" />
<glyph unicode="8" horiz-adv-x="1245" d="M117 358q27 178 90 269.5t192 103.5l4 8q-197 25 -155 328q29 199 131 283t352 82q256 0 339 -87.5t56 -289.5q-41 -295 -245 -318l-4 -8q123 -14 163.5 -109.5t16.5 -273.5q-29 -201 -135.5 -281.5t-378.5 -82.5q-262 -2 -358.5 86t-67.5 290zM248 371 q-23 -158 38.5 -216.5t266.5 -58.5q201 0 279.5 62.5t99.5 224.5q27 186 -29.5 240.5t-267.5 54.5q-213 -2 -287 -57.5t-100 -249.5zM369 1044q-23 -162 31.5 -209t252.5 -47q195 0 259.5 51.5t86.5 217.5q25 154 -29.5 209t-247 55t-262 -58.5t-91.5 -218.5z" />
<glyph unicode="9" horiz-adv-x="1161" d="M102 4l25 98q109 -12 264 -12q248 4 346.5 121t161.5 485q-90 -106 -181 -150t-210 -48q-215 -6 -291 112.5t-43 354.5q31 246 149.5 359.5t354.5 113.5q272 0 346 -161t10 -558q-37 -236 -85 -381t-127 -226t-173 -109t-243 -28q-163 0 -304 29zM299 950 q-27 -190 26 -269t205 -75q109 4 195 49t193 160q41 285 -7.5 396.5t-240.5 111.5q-180 0 -262 -88t-109 -285z" />
<glyph unicode=":" horiz-adv-x="458" d="M102 53l19 117q6 49 53 49h45q55 0 45 -53l-16 -119q-6 -47 -53 -47h-45q-53 0 -48 53zM199 729l16 117q6 49 55 49h45q53 0 45 -55l-16 -117q-6 -47 -53 -47h-45q-57 0 -47 53z" />
<glyph unicode=";" horiz-adv-x="466" d="M61 -238q45 158 62 240q-45 0 -39 45l18 123q4 29 16.5 39t43.5 10h43q49 0 43 -51l-19 -133q-18 -133 -102 -295zM178 729l17 117q6 49 53 49h47q51 0 45 -55l-16 -117q-6 -47 -54 -47h-45q-57 0 -47 53z" />
<glyph unicode="&#x3c;" horiz-adv-x="1085" d="M106 555l15 104l874 363l-14 -113l-752 -305l664 -301l-14 -104z" />
<glyph unicode="=" horiz-adv-x="1204" d="M123 332l14 100h883l-14 -100h-883zM182 764l15 100h882l-14 -100h-883z" />
<glyph unicode="&#x3e;" horiz-adv-x="1083" d="M92 201l14 112l750 301l-661 308l14 102l770 -365l-14 -104z" />
<glyph unicode="?" horiz-adv-x="1019" d="M186 1417q12 2 49 8.5t48.5 8.5t42 7t47 6t48.5 4t59.5 4t65.5 2t81 1q203 0 299 -80t73 -243q-12 -84 -60 -156t-110.5 -126t-126 -111.5t-114.5 -138.5t-68 -179l-112 2q14 104 62 192.5t108.5 147.5t121 112.5t106.5 117t56 132.5q14 119 -45 169.5t-213 50.5 q-171 0 -411 -25zM342 53l18 117q5 49 54 49h37q55 0 45 -53l-17 -117q-6 -49 -53 -49h-37q-53 0 -47 53z" />
<glyph unicode="@" horiz-adv-x="1556" d="M127 463q47 276 151.5 365.5t344.5 89.5q143 0 403 -41l-100 -666q-8 -63 10 -91t70 -28q123 0 171 106.5t95 444.5q14 104 22.5 174t5 131.5t-9.5 96t-32.5 64.5t-52 42t-83 21.5t-108.5 10.5t-144 1h-630l10 96q240 10 622 14q139 0 225.5 -7t158 -33.5t103.5 -67.5 t49 -120t12 -179.5t-25 -253.5q-51 -387 -129 -520t-269 -133q-219 0 -198 231q-207 -236 -430 -236q-178 0 -230.5 126t-11.5 362zM243.5 177.5q28.5 -91.5 149.5 -91.5q197 0 422 250l72 465q-145 8 -223 8q-223 0 -297 -65.5t-113 -290.5q-39 -184 -10.5 -275.5z" />
<glyph unicode="A" horiz-adv-x="1253" d="M-55 0l665 1378q14 35 56 35h153q18 0 32.5 -12t16.5 -29l281 -1372h-135l-90 467h-617l-219 -467h-143zM365 586h536l-117 604q-4 20 -10 59t-8 60h-61q-6 -12 -26 -55.5t-30 -63.5z" />
<glyph unicode="B" horiz-adv-x="1259" d="M104 0l199 1413q158 16 434 17q257 0 353 -80q72 -60 72 -198q0 -45 -7 -97q-23 -152 -89.5 -228.5t-193.5 -89.5l-2 -10q150 -13 202 -109q35 -64 35 -164q0 -50 -9 -108q-31 -213 -136.5 -287.5t-351.5 -74.5q-328 0 -506 16zM252 102q168 -4 342 -4q190 0 270 57.5 t103 221.5q7 50 7 91q0 102 -45 146q-63 62 -257 66h-340zM348 784h330q174 2 248.5 57.5t97.5 211.5q6 43 6 78q0 96 -46 133q-62 51 -253 51q-233 0 -309 -2z" />
<glyph unicode="C" horiz-adv-x="1153" d="M152 713q55 401 196 563t438 162q213 0 375 -39l-24 -101q-150 18 -351 19q-233 0 -339.5 -130t-157.5 -487q-19 -142 -20 -247q-1 -149 39 -226q66 -131 290 -131h32q200 0 363 23l11 -101q-166 -43 -406 -43q-300 0 -402 171q-65 109 -65 310q0 114 21 257z" />
<glyph unicode="D" horiz-adv-x="1353" d="M104 0l199 1413q250 18 465 19q310 0 416 -163q68 -106 69 -314q0 -113 -20 -255q-31 -221 -79 -359t-130 -219t-185.5 -110.5t-263.5 -29.5q-209 0 -471 18zM254 104q205 -4 319 -4q170 0 267.5 51.5t158 181.5t95.5 380q22 149 22 257q0 148 -40 220q-70 125 -310 125 q-23 0 -342 -6z" />
<glyph unicode="E" horiz-adv-x="1136" d="M127 256l131 930q14 106 86 167.5t188 61.5q416 0 607 -12l-19 -103h-569q-145 0 -164 -151l-49 -348h633l-15 -105h-632l-60 -438q-3 -20 -3 -37q0 -108 126 -108h565v-103q-188 -12 -583 -12q-131 0 -195 70q-51 56 -50 142q0 22 3 46z" />
<glyph unicode="F" horiz-adv-x="1095" d="M100 0l164 1180q16 113 89 174t188 61q403 0 589 -12l-20 -103h-543q-78 0 -119.5 -35.5t-52.5 -115.5l-51 -365h614l-14 -104h-614l-97 -680h-133z" />
<glyph unicode="G" horiz-adv-x="1273" d="M150 713q37 283 119.5 442.5t208.5 221t327 61.5q233 0 403 -39l-24 -101q-182 20 -365 21q-258 0 -369.5 -127t-160.5 -492q-16 -138 -16 -242q0 -149 33 -229q56 -135 239 -135q111 0 205 56.5t211 168.5l69 500h131l-117 -819h-96l10 205q-203 -229 -454 -230 q-231 0 -316 175q-54 114 -54 316q0 111 16 247z" />
<glyph unicode="H" horiz-adv-x="1357" d="M104 0l199 1413h135l-84 -600h711l84 600h135l-199 -1413h-135l99 696h-711l-98 -696h-136z" />
<glyph unicode="I" horiz-adv-x="512" d="M104 0l199 1413h135l-198 -1413h-136z" />
<glyph unicode="J" horiz-adv-x="681" d="M-14 6l26 92h105q176 0 205 176l157 1139h135l-159 -1141q-41 -288 -297 -288h-2q-92 0 -170 22z" />
<glyph unicode="K" horiz-adv-x="1189" d="M104 0l199 1413h133l-63 -459q-18 -111 -33 -161h190l535 620h164l-510 -594q-41 -49 -86 -80l-2 -8q31 -35 57 -86l373 -645h-152l-391 682h-194q-4 -109 -13 -162l-73 -520h-134z" />
<glyph unicode="L" horiz-adv-x="1036" d="M137 262l160 1151h135l-162 -1155q-2 -16 -2 -31q0 -45 24 -75q32 -38 101 -39h531l-4 -103q-182 -12 -553 -12q-121 0 -183 70q-50 55 -50 145q0 24 3 49z" />
<glyph unicode="M" horiz-adv-x="1779" d="M76 0l248 1356q12 57 63 57h158q47 0 53 -49l186 -924q6 -33 16.5 -97t16.5 -95h45q47 113 86 194l438 926q19 45 64 45h160q29 0 43 -17.5t12 -45.5l-131 -1350h-133l129 1300h-43l-524 -1110q-16 -43 -62 -43h-135q-51 0 -57 50l-220 1103h-45l-233 -1300h-135z" />
<glyph unicode="N" horiz-adv-x="1429" d="M104 0l191 1360q8 53 61 53h129q45 0 62 -47l391 -1049q43 -121 66 -192h45q6 66 22 197l152 1091h133l-193 -1360q-6 -53 -59 -53h-135q-41 0 -60 47l-401 1075q-43 117 -55 166h-41q-6 -88 -19 -176l-153 -1112h-136z" />
<glyph unicode="O" d="M152 713q55 403 196.5 564t442.5 161q297 0 401 -167q67 -108 67 -315q0 -113 -20 -256q-55 -406 -196.5 -565.5t-438.5 -159.5q-296 0 -402 166q-69 108 -69 319q0 112 19 253zM289 700q-19 -139 -19 -244q0 -152 40 -230q68 -132 296 -132q229 0 337 134t157 485 q22 148 22 257q0 145 -39 219q-68 130 -297 130q-233 0 -339.5 -133t-157.5 -486z" />
<glyph unicode="P" horiz-adv-x="1198" d="M104 0l199 1413q174 16 469 17q242 0 330 -96q63 -69 63 -214q0 -57 -10 -127q-37 -254 -141.5 -341t-345.5 -87q-174 0 -346 17l-82 -582h-136zM334 682h332q178 2 253.5 67.5t102.5 254.5q8 57 8 103q0 99 -38 143q-54 64 -222 65q-182 0 -346 -4z" />
<glyph unicode="Q" d="M152 713q55 403 196.5 564t442.5 161q297 0 401 -167q67 -108 67 -315q0 -113 -20 -256q-55 -406 -196.5 -565.5t-438.5 -159.5t-402 166q-69 108 -69 319q0 112 19 253zM289 700q-19 -139 -19 -244q0 -152 40 -230q69 -132 296 -132q229 0 337 134t157 485 q22 148 22 257q0 145 -39 219q-68 130 -297 130q-233 0 -339.5 -133t-157.5 -486zM446 -174l54 80q197 -117 493 -166l-51 -133q-289 59 -496 219z" />
<glyph unicode="R" horiz-adv-x="1257" d="M104 0l199 1413q174 16 469 17q234 0 328 -90q71 -67 71 -215q0 -48 -8 -105q-25 -172 -98.5 -257t-216.5 -106l-2 -10q113 -33 143 -201l90 -446h-137l-86 446q-16 86 -58 122t-118 38q-63 0 -141 1t-129.5 2t-85.5 1l-86 -610h-134zM338 723h336q174 2 250.5 66.5 t101.5 236.5q8 52 8 94q0 92 -38 134q-56 60 -226 61q-184 0 -348 -4z" />
<glyph unicode="S" horiz-adv-x="1142" d="M61 8l19 101q248 -12 407 -13q195 2 274 47t101 199q4 36 4 65q0 65 -21 99q-31 49 -140 94l-291 113q-144 57 -196 145q-38 65 -39 164q0 35 5 74q16 115 55.5 185.5t108.5 102.5q68 34 140 44q61 9 152 8h36q219 0 405 -35l-16 -96q-227 12 -406 12q-59 0 -88.5 -1 t-73.5 -8.5t-66.5 -21.5t-48.5 -39.5t-40 -66.5t-23 -99q-3 -30 -4 -55q0 -68 24 -105q32 -51 136 -94l287 -110q158 -61 207 -147q34 -60 34 -154q0 -41 -6 -88q-16 -115 -53 -184.5t-106.5 -106.5t-149.5 -48.5t-211 -11.5q-221 0 -416 31z" />
<glyph unicode="T" horiz-adv-x="1163" d="M141 1294l19 119h1073l-16 -119h-472l-182 -1294h-135l182 1294h-469z" />
<glyph unicode="U" horiz-adv-x="1361" d="M170 539l123 874h135l-125 -881q-11 -82 -11 -147q0 -131 44 -195q66 -96 268 -96q205 0 304.5 99.5t131.5 345.5l123 874h135l-124 -881q-43 -303 -172.5 -430t-393.5 -127q-272 -1 -376 131q-74 93 -75 272q0 73 13 161z" />
<glyph unicode="V" horiz-adv-x="1226" d="M147 1413h138l202 -1157q2 -16 8.5 -48t10.5 -57.5t6 -48.5h53q37 90 68 162l526 1149h141l-643 -1376q-14 -37 -55 -37h-145q-41 0 -49 43z" />
<glyph unicode="W" horiz-adv-x="1918" d="M172 1413h137l99 -1149q4 -51 8 -162h53l57 166l402 1102q16 43 59 43h154q20 0 33.5 -14.5t15.5 -34.5l104 -1100q8 -113 11 -162h53l55 166l416 1145h141l-512 -1374q-14 -39 -59 -39h-160q-47 0 -51 47l-96 1106l-13 156h-47l-57 -162l-402 -1106q-16 -41 -59 -41 h-160q-20 0 -35.5 13.5t-17.5 31.5z" />
<glyph unicode="X" horiz-adv-x="1232" d="M-27 0l523 735l-295 678h139l264 -625h66l446 625h150l-486 -680l314 -733h-140l-284 684h-64l-477 -684h-156z" />
<glyph unicode="Y" horiz-adv-x="1134" d="M137 1413h137l236 -631q25 -66 47 -151h14q25 53 88 157l412 625h148l-603 -907l-69 -506h-135l71 510z" />
<glyph unicode="Z" horiz-adv-x="1144" d="M14 0l17 115l954 1183h-780l16 115h932l-18 -115l-955 -1183h803l-18 -115h-951z" />
<glyph unicode="[" horiz-adv-x="653" d="M76 -242l241 1725q14 90 103 90h282l-12 -90h-217q-29 0 -37 -33l-233 -1671q-4 -27 20 -27h223l-12 -90h-274q-43 0 -66.5 24.5t-17.5 71.5z" />
<glyph unicode="\" horiz-adv-x="1021" d="M168 1413h106l592 -1542h-106z" />
<glyph unicode="]" horiz-adv-x="653" d="M-45 -338l12 90h215q31 0 39 33l236 1671q4 27 -23 27h-223l12 90h275q41 0 65.5 -27.5t18.5 -68.5l-242 -1725q-6 -41 -35 -65.5t-67 -24.5h-283z" />
<glyph unicode="^" horiz-adv-x="847" d="M102 791l375 419h94l258 -422l-59 -36l-244 362h-16l-354 -362z" />
<glyph unicode="_" horiz-adv-x="1204" d="M63 -102l17 102h891l-15 -102h-893z" />
<glyph unicode="`" horiz-adv-x="616" d="M186 1378l76 92l318 -301l-52 -59z" />
<glyph unicode="a" horiz-adv-x="1167" d="M119 504q25 164 60.5 264t99 155.5t141.5 75t201 19.5q186 0 432 -41l-140 -977h-100l18 223q-98 -113 -220 -180.5t-242 -67.5q-181 0 -237 120q-31 68 -32 189q0 94 19 220zM242 176q28 -86 147 -86q200 0 442 246l80 563q-217 8 -254 8q-94 0 -152.5 -10t-103.5 -32.5 t-72.5 -74t-46 -118t-34.5 -178.5q-19 -128 -20 -212q1 -68 14 -106z" />
<glyph unicode="b" horiz-adv-x="1165" d="M86 43l197 1391h129l-60 -412q-22 -158 -51 -262q256 256 461 256q176 0 238 -115q37 -69 37 -204q0 -90 -17 -210q-23 -164 -59.5 -266t-98 -155.5t-132.5 -72t-183 -18.5q-223 0 -461 68zM225 104q164 -20 279 -20q207 0 277.5 77t105.5 337q17 123 17 204 q0 78 -16 118q-32 80 -155 81h-1q-158 0 -429 -237z" />
<glyph unicode="c" horiz-adv-x="985" d="M106 502q39 285 158 400.5t371 115.5q182 0 303 -45l-23 -84q-109 16 -260 16q-201 0 -292 -86t-121 -327q-12 -84 -11 -148q-1 -120 39 -174q62 -82 256 -82q174 0 295 23l10 -91q-147 -45 -325 -45q-258 0 -349 121q-63 84 -63 247q0 72 12 159z" />
<glyph unicode="d" horiz-adv-x="1165" d="M117 504q23 164 59.5 264t99 155.5t138 75t194.5 19.5q143 0 322 -25q6 109 18 191l35 250h131l-203 -1434h-100l18 231q-236 -256 -483 -256q-162 0 -216 124q-31 70 -31 192q0 92 18 213zM240 180q26 -90 139 -90q198 0 452 248l76 563q-213 8 -256 8 q-219 0 -292.5 -75.5t-110.5 -339.5q-20 -127 -20 -211q1 -64 12 -103z" />
<glyph unicode="e" horiz-adv-x="1091" d="M109 514q41 295 157.5 399.5t374.5 104.5q215 0 302 -75q63 -54 63 -155q0 -38 -9 -83q-27 -133 -107.5 -190.5t-252.5 -74.5l-408 -39q-2 -28 -2 -53q-1 -140 57 -196q68 -66 236 -66q148 0 365 27l10 -88q-141 -49 -399 -50q-250 0 -339 126q-61 86 -61 248 q0 74 13 165zM242 502l395 39q113 12 162 48t67 126q9 39 9 69q1 64 -39 88q-58 36 -205 35q-98 0 -157.5 -14t-108 -57t-76 -120t-47.5 -206v-8z" />
<glyph unicode="f" horiz-adv-x="753" d="M-252 -406l19 97h157q102 0 150.5 42t62.5 150l142 1006h-179l13 92l180 10l29 193q37 282 309 282h2q154 0 268 -12l-18 -96h-209q-109 0 -160 -42t-65 -151l-25 -174h336l-17 -102h-333l-144 -1024q-41 -283 -301 -283q-96 0 -217 12z" />
<glyph unicode="g" horiz-adv-x="1173" d="M35 -416l14 88q87 -4 172 -4t168 4q344 20 397 316q35 199 74 268q-100 -127 -232 -204t-263 -77q-172 0 -231 120q-33 69 -33 194q0 93 18 215q25 164 61.5 264t99 155.5t137.5 75t193 19.5q197 0 443 -41h10l-145 -969q-55 -428 -525 -446q-52 -3 -102 -3 q-140 0 -256 25zM244 176q28 -86 147 -86q201 0 445 248l84 561q-221 8 -265 8q-219 0 -292.5 -74.5t-112.5 -338.5q-19 -127 -19 -211q0 -68 13 -107z" />
<glyph unicode="h" horiz-adv-x="1175" d="M84 0l203 1434h129l-56 -416q-18 -125 -47 -248q287 248 486 248q131 0 193 -72q47 -55 46 -146q0 -28 -4 -59l-106 -741h-129l100 715q4 32 4 58q1 59 -21 89q-32 43 -120 43q-94 0 -196.5 -57t-258.5 -184l-92 -664h-131z" />
<glyph unicode="i" horiz-adv-x="483" d="M94 0l139 991h129l-139 -991h-129zM260 1249l19 121q2 39 45 39h59q40 0 39 -35v-10l-16 -121q-6 -39 -46 -39h-59q-42 0 -42 35q0 5 1 10z" />
<glyph unicode="j" horiz-adv-x="483" d="M-74 -362q135 145 160 317l147 1036h129l-147 -1044q-31 -223 -219 -369zM260 1249l19 121q2 39 45 39h59q40 0 40 -35q0 -5 -1 -10l-16 -121q-6 -39 -46 -39h-59q-42 0 -42 35q0 5 1 10z" />
<glyph unicode="k" horiz-adv-x="1042" d="M86 0l201 1434h131l-101 -732q-12 -98 -51 -219q219 84 377 214t217 294h133q-98 -272 -358 -442q33 -57 57 -111l205 -438h-139l-223 489q-96 -51 -267 -116l-53 -373h-129z" />
<glyph unicode="l" horiz-adv-x="579" d="M119 225l170 1209h129l-166 -1190q-3 -21 -3 -39q1 -44 21 -69q30 -34 103 -34h106l6 -98q-49 -20 -163 -20q-110 0 -164 64q-43 50 -42 130q0 22 3 47z" />
<glyph unicode="m" horiz-adv-x="1789" d="M84 0l141 991h99l-19 -223q260 250 445 250q121 0 181 -62q55 -57 54 -156v-20q248 238 430 238q131 0 191 -73q46 -56 45 -146q0 -27 -4 -58l-105 -741h-129l103 715q4 29 4 53q0 62 -26 93q-36 44 -124 44q-82 0 -166 -52t-233 -187l-94 -666h-125l100 715q4 29 4 54 q0 59 -24 91q-34 45 -125 45q-82 0 -167 -53t-233 -184l-94 -668h-129z" />
<glyph unicode="n" horiz-adv-x="1175" d="M84 0l141 991h103l-21 -225q287 252 492 252q131 0 193 -72q47 -55 46 -146q0 -28 -4 -59l-106 -741h-129l100 715q4 32 4 58q1 59 -21 89q-32 43 -120 43q-94 0 -195.5 -56t-259.5 -181l-92 -668h-131z" />
<glyph unicode="o" horiz-adv-x="1150" d="M106 502q39 283 156 399.5t364.5 116.5t339.5 -122q63 -84 62 -246q0 -73 -12 -161q-39 -283 -156 -398.5t-362 -115.5q-250 0 -340 120q-63 84 -63 251q0 71 11 156zM242 489q-12 -87 -12 -153q0 -110 34 -164q55 -86 234 -86q182 0 267 90t118 326q12 86 12 152 q-1 111 -35 165q-56 86 -233 86q-182 0 -267.5 -89t-117.5 -327z" />
<glyph unicode="p" horiz-adv-x="1169" d="M25 -428l200 1419h103l-21 -231q102 109 233.5 182.5t233.5 73.5q180 0 234 -118q32 -67 32 -192q0 -93 -18 -219q-25 -162 -61.5 -263t-99 -155.5t-138.5 -74t-197 -19.5q-152 0 -319 23q-2 -96 -17 -191l-36 -235h-129zM229 90q162 -6 254 -6q117 0 181.5 13.5 t112.5 61.5t70.5 123.5t43.5 215.5q19 127 19 211q0 68 -13 107q-29 85 -147 85q-84 0 -205 -65.5t-238 -180.5z" />
<glyph unicode="q" horiz-adv-x="1161" d="M115 504q23 164 59.5 266t97 156.5t131 73t181.5 18.5q219 0 463 -70l-197 -1376h-129l61 405q20 156 58 265q-238 -266 -478 -267q-162 0 -224 117q-38 72 -38 211q0 87 15 201zM244 176q30 -86 153 -86q104 0 197.5 55.5t236.5 192.5l76 549q-141 20 -278 20 q-205 0 -276.5 -76.5t-104.5 -336.5q-17 -122 -17 -204q0 -73 13 -114z" />
<glyph unicode="r" horiz-adv-x="804" d="M84 0l141 991h99l-19 -233q272 260 473 260h47l-32 -123h-48q-86 0 -182 -54.5t-256 -178.5l-92 -662h-131z" />
<glyph unicode="s" horiz-adv-x="1030" d="M51 4l17 96q127 -14 329 -14q197 4 266.5 30.5t81.5 112.5q3 15 3 29q0 29 -12 50q-17 32 -41 45t-83 38l-295 123q-109 48 -155 106q-35 45 -34 119q0 23 3 49q21 142 115 188q87 43 264 42h31q213 -4 405 -31l-16 -92q-186 10 -385 12h-26q-137 1 -191 -19 q-58 -22 -70 -110q-3 -18 -2 -34q0 -44 20 -68q28 -32 107 -64l297 -123q119 -49 164 -105q34 -42 34 -115q0 -24 -4 -52q-8 -66 -34.5 -111t-60.5 -70.5t-93 -38.5t-116.5 -17.5t-147.5 -4.5q-141 0 -371 29z" />
<glyph unicode="t" horiz-adv-x="747" d="M94 889l12 92l185 10l43 301h127l-41 -301h334l-17 -102h-334l-90 -645q-3 -20 -3 -37q0 -48 22 -72q28 -33 104 -33h164l6 -98q-90 -20 -207 -20q-123 0 -177 66q-42 51 -42 132q0 24 4 51l92 656h-182z" />
<glyph unicode="u" horiz-adv-x="1153" d="M113 250l104 741h131l-102 -712q-4 -29 -5 -54q1 -59 25 -91q34 -46 123 -46q94 0 188.5 58.5t243.5 193.5l90 651h129l-139 -991h-100l20 231q-262 -256 -473 -256q-134 0 -194 72q-46 55 -46 144q0 28 5 59z" />
<glyph unicode="v" horiz-adv-x="1067" d="M102 991h136l168 -887h34q37 0 57.5 11.5t47.5 44.5q80 104 172 297q129 258 184 534h135q-70 -313 -211 -588q-125 -231 -196 -319q-33 -45 -69 -64.5t-93 -19.5h-119q-39 0 -47 37z" />
<glyph unicode="w" horiz-adv-x="1714" d="M102 991h134l153 -887h27q51 0 88 62q66 100 137 293q78 209 137 499q4 37 39 33h141q31 0 39 -33l113 -854h25q45 0 82 58q104 158 161 297q98 217 160 532h135q-76 -334 -194 -588q-106 -223 -189 -323q-61 -80 -147 -80h-88q-41 0 -45 37l-113 866h-23 q-35 -229 -126 -477q-76 -209 -162 -328q-59 -98 -174 -98h-80q-37 0 -45 37z" />
<glyph unicode="x" horiz-adv-x="1058" d="M-31 0l422 516l-254 475h133l219 -422h60l344 422h143l-389 -477l275 -514h-134l-243 465h-53l-373 -465h-150z" />
<glyph unicode="y" horiz-adv-x="1083" d="M76 -334q229 63 411 334h-84q-41 0 -70.5 23.5t-37.5 62.5l-197 905h138l170 -844q10 -43 51 -43h96l47 82q207 367 311 805h136q-115 -473 -332 -841q-158 -276 -298.5 -407.5t-318.5 -166.5z" />
<glyph unicode="z" horiz-adv-x="1017" d="M16 0l13 109l770 776h-652l15 106h807l-15 -106l-770 -776h666l-14 -109h-820z" />
<glyph unicode="{" horiz-adv-x="636" d="M100 623l15 102q88 25 113.5 48.5t37.5 117.5l60 418q20 145 102 209.5t252 54.5l-6 -84q-109 0 -160 -46t-68 -149l-53 -385q-16 -125 -56 -170t-149 -67q100 -37 130 -83t16 -153l-70 -502q-14 -102 20.5 -145t145.5 -43l-6 -84q-166 -8 -235.5 59.5t-47.5 210.5 l74 535q10 74 -9.5 98.5t-90.5 50.5q-10 4 -15 7z" />
<glyph unicode="|" horiz-adv-x="493" d="M66 -346l272 1945h98l-274 -1945h-96z" />
<glyph unicode="}" horiz-adv-x="636" d="M-45 -338l6 84q109 0 159 46t64 147l70 503q16 106 57 150.5t156 79.5q-98 23 -128 72t-9 171l53 385q14 102 -20.5 145.5t-145.5 43.5l6 84q168 10 236.5 -59.5t48.5 -210.5l-59 -418q-12 -94 5 -115.5t101 -48.5l-14 -103q-49 -16 -66.5 -24t-42 -25.5t-34 -42 t-15.5 -65.5l-76 -535q-20 -145 -100 -208.5t-252 -55.5z" />
<glyph unicode="~" horiz-adv-x="1077" d="M145 479q6 113 55.5 168t123.5 51q84 -4 213 -62t194 -65q59 -4 88 25t39 96l70 -6q-4 -106 -54.5 -162.5t-123.5 -50.5q-98 4 -225.5 62.5t-182.5 62.5q-59 6 -88 -24.5t-39 -100.5z" />
<glyph unicode="&#xa1;" horiz-adv-x="503" d="M45 -408l90 637l62 344h104l-37 -344l-88 -637h-131zM217 834l16 118q7 47 56 47h37q53 0 45 -53l-17 -115q-6 -49 -55 -49h-35q-53 0 -47 52z" />
<glyph unicode="&#xa2;" horiz-adv-x="1032" d="M137 721q41 285 160 399.5t369 114.5h14l39 178h72l-41 -182q133 -8 219 -41l-23 -82q-119 14 -223 14l-176 -817h10q160 0 295 23l10 -90q-154 -45 -325 -45h-19l-43 -193h-72l46 197q-205 18 -277 140t-35 384zM272 711q-29 -215 16.5 -302.5t186.5 -101.5l176 815 q-180 -6 -264 -93t-115 -318z" />
<glyph unicode="&#xa3;" horiz-adv-x="1155" d="M47 0l16 117q197 98 224 409l16 176h-166l13 84h159l27 289q10 117 43 191.5t92 110.5t123.5 47.5t165.5 11.5q155 -1 352 -21l-16 -104q-188 10 -355 10q-139 0 -201.5 -56.5t-74.5 -195.5l-25 -283h465l-16 -84h-455l-16 -176q-12 -154 -58.5 -252t-146.5 -163 q41 4 127 4h641l-16 -115h-918z" />
<glyph unicode="&#xa4;" horiz-adv-x="1222" d="M119 334l162 141q-68 106 -50 252q18 162 115 264l-137 158l61 59l142 -161q106 74 255.5 73.5t247.5 -82.5l160 144l55 -66l-159 -141q72 -106 53 -260q-14 -152 -111 -256l142 -160l-64 -55l-139 159q-113 -80 -264 -79q-154 0 -252 88l-160 -142zM313 715 q-14 -139 59 -224.5t210 -87.5q147 -4 245.5 85.5t114.5 238.5q14 139 -59.5 226t-214.5 87q-150 0 -244 -89t-111 -236z" />
<glyph unicode="&#xa5;" horiz-adv-x="1249" d="M145 338l13 82h370l17 123l-10 24h-357l10 82h314l-307 764h137l235 -598q37 -94 51 -151h17q37 78 90 155l401 594h150l-520 -764h317l-12 -82h-363l-20 -30l-16 -117h378l-12 -82h-377l-47 -338h-135l47 338h-371z" />
<glyph unicode="&#xa6;" horiz-adv-x="493" d="M66 -346l114 819h99l-115 -819h-98zM223 780l115 819h98l-114 -819h-99z" />
<glyph unicode="&#xa7;" horiz-adv-x="1114" d="M23 -293l18 100q201 -12 399 -14q74 0 117 3t89 16.5t70.5 46t33.5 86.5q16 127 -111 207l-326 196q-131 78 -153 189.5t37 275.5l96 -2q-37 -131 -21.5 -215t105.5 -139l340 -211q102 -61 143 -133t25 -185q-10 -68 -36 -113.5t-58.5 -72.5t-88 -40t-105.5 -16t-128 -3 q-238 4 -446 24zM219 1196q23 147 119 195.5t297 46.5q248 0 446 -25l-18 -100q-184 12 -399 14q-156 2 -224.5 -23.5t-85.5 -121.5q-10 -74 18.5 -120t92.5 -85l330 -203q129 -78 150.5 -193.5t-36.5 -277.5l-98 2q35 131 18.5 220.5t-104.5 144.5l-336 211 q-104 63 -145 134.5t-25 180.5z" />
<glyph unicode="&#xa8;" horiz-adv-x="833" d="M287 1255l16 113q6 41 47 41h41q41 0 35 -41l-16 -111q-6 -41 -45 -40h-41q-39 0 -37 38zM639 1255l16 113q6 41 47 41h39q43 0 37 -41l-18 -111q-2 -41 -43 -40h-43q-41 0 -35 38z" />
<glyph unicode="&#xa9;" horiz-adv-x="1724" d="M145 713q41 317 262.5 521t557.5 204q322 0 505 -205t140 -533q-41 -319 -263.5 -522t-558.5 -203q-324 0 -505 207t-138 531zM219 700q-37 -293 125 -473t442 -180q303 0 507 185.5t241 480.5q39 289 -120.5 471t-444.5 182q-303 0 -507 -185.5t-243 -480.5zM489 717 q35 256 138.5 355t328.5 99q150 0 265 -26l-17 -74q-106 10 -237 10q-186 0 -264 -75.5t-111 -298.5q-29 -205 21.5 -284t213.5 -79q191 0 293 12l6 -75q-133 -29 -284 -29q-233 0 -310 103.5t-43 361.5z" />
<glyph unicode="&#xaa;" horiz-adv-x="911" d="M174 895q29 211 111 277.5t241 66.5q143 0 305 -29l-92 -657h-80l9 135q-135 -150 -297 -149q-127 0 -176.5 75.5t-20.5 280.5zM274 887q-23 -158 2 -207t111 -49q127 0 285 147l53 371q-143 4 -168 4q-147 0 -202.5 -48t-80.5 -218z" />
<glyph unicode="&#xab;" horiz-adv-x="958" d="M80 504l4 33l385 399l55 -49l-329 -375l231 -381l-66 -45zM434 504l4 33l385 399l56 -49l-330 -375l231 -381l-65 -45z" />
<glyph unicode="&#xac;" horiz-adv-x="1204" d="M152 557l14 102h883l-56 -385h-104l41 283h-778z" />
<glyph unicode="&#xad;" horiz-adv-x="940" d="M137 465l13 102h628l-14 -102h-627z" />
<glyph unicode="&#xae;" horiz-adv-x="1155" d="M176 993q23 207 159 325t337 118q205 0 321.5 -124t91.5 -335q-25 -203 -157.5 -328t-335.5 -125q-209 0 -324.5 130t-91.5 339zM227 985q-20 -190 82.5 -301t282.5 -111q186 0 304 115t138 299q20 188 -79 295t-283 107q-190 0 -307 -111t-138 -293zM383 709l78 546 q76 6 211 7q115 0 165 -31t37 -129q-8 -66 -37.5 -96.5t-95.5 -42.5l-2 -5q41 -14 58 -79l45 -170h-70l-41 172q-16 61 -80 61h-168l-34 -233h-66zM489 991h156q84 2 120 23.5t44 93.5q8 66 -19.5 84t-115.5 18h-154z" />
<glyph unicode="&#xaf;" horiz-adv-x="819" d="M238 1260l14 100h557l-14 -100h-557z" />
<glyph unicode="&#xb0;" horiz-adv-x="757" d="M199 1188q10 113 88.5 181.5t191.5 68.5q117 0 184.5 -75t55.5 -187q-10 -113 -90 -183.5t-193 -70.5q-119 0 -183.5 77.5t-53.5 188.5zM284.5 1182q-8.5 -78 36 -128t119.5 -50q78 0 131.5 48t61.5 130q8 78 -34 127t-122 49q-78 0 -131 -49t-61.5 -127z" />
<glyph unicode="&#xb1;" horiz-adv-x="1206" d="M100 160l15 100h882l-16 -100h-881zM172 676l14 100h389l39 283h105l-39 -283h389l-14 -100h-389l-41 -283h-101l39 283h-391z" />
<glyph unicode="&#xb2;" horiz-adv-x="860" d="M150 737l8 68q4 31 18 45l316 280q199 176 208 287q6 57 -31.5 73.5t-127.5 16.5q-124 0 -267 -20l-4 82q150 31 277 30q139 0 205.5 -39.5t52.5 -146.5q-8 -78 -54 -144.5t-151 -162.5l-307 -275q68 6 143 7h322l-13 -101h-595z" />
<glyph unicode="&#xb3;" horiz-adv-x="823" d="M147 743l15 82q160 -14 244 -10q219 14 243 174q12 70 -22.5 112t-139.5 42h-172l11 80l168 2q100 2 140 45t50 114q10 74 -24.5 99.5t-153.5 25.5q-98 0 -225 -12l-7 82q135 20 252 20q150 0 209.5 -48t48.5 -150q-10 -82 -49 -144.5t-114 -70.5l-3 -6q162 -25 134 -211 q-35 -236 -338 -246q-123 -6 -267 20z" />
<glyph unicode="&#xb4;" horiz-adv-x="616" d="M209 1171l377 302l65 -101l-397 -262z" />
<glyph unicode="&#xb6;" horiz-adv-x="1214" d="M135 946q41 283 190.5 387.5t483.5 104.5q168 0 313 -35l-198 -1403h-105l189 1335q-123 12 -238 13l-250 -1778h-104l119 842q-244 27 -339.5 157.5t-60.5 376.5z" />
<glyph unicode="&#xb7;" horiz-adv-x="456" d="M137 471l19 119q6 47 53 47h45q55 0 45 -53l-16 -119q-6 -47 -54 -47h-45q-53 0 -47 53z" />
<glyph unicode="&#xb8;" horiz-adv-x="466" d="M-57 -463l24 72q90 -2 154.5 44t77.5 118q6 43 -15.5 57t-93.5 16l16 64q111 10 157 -21.5t32 -117.5q-18 -119 -115.5 -184.5t-236.5 -47.5z" />
<glyph unicode="&#xb9;" horiz-adv-x="581" d="M201 1499l250 86h106l-121 -848h-104l98 678q8 49 14 74l-241 -68z" />
<glyph unicode="&#xba;" horiz-adv-x="907" d="M170 895q27 190 107.5 267t254.5 77q182 0 246 -81t37 -275q-27 -188 -109.5 -266t-254.5 -78q-178 0 -243 80.5t-38 275.5zM272 883q-20 -150 18 -204t161 -54q125 0 182 58t78 212q20 150 -17.5 205t-158.5 55q-129 0 -184.5 -58.5t-78.5 -213.5z" />
<glyph unicode="&#xbb;" horiz-adv-x="958" d="M55 133l330 373l-231 383l65 43l279 -418l-2 -31l-387 -401zM410 133l329 373l-231 383l65 43l279 -418l-2 -31l-387 -401z" />
<glyph unicode="&#xbc;" horiz-adv-x="1738" d="M178 0l1139 1413h100l-1138 -1413h-101zM184 1325l256 88h105l-119 -848h-104l96 682q10 63 14 76l-246 -70zM907.5 248q-20.5 35 7.5 88l349 512h104l-340 -506q-12 -18 -5 -32.5t32 -14.5h356l35 252l39 139h80l-56 -391h101l-11 -72l-102 -8l-29 -215h-98l29 213h-420 q-51 0 -71.5 35z" />
<glyph unicode="&#xbd;" horiz-adv-x="1785" d="M168 0l1139 1413h100l-1139 -1413h-100zM182 1325l258 88h103l-119 -848h-105l97 682q8 49 16 76l-246 -70zM977 0l8 61q2 27 21 45l325 281q199 174 215 289q8 61 -31.5 79.5t-134.5 18.5q-126 0 -276 -20l-6 77q156 31 282 31q160 0 226.5 -39t50.5 -153 q-8 -70 -58.5 -140.5t-154.5 -162.5l-326 -277q102 4 150 2h348l-14 -92h-625z" />
<glyph unicode="&#xbe;" horiz-adv-x="1929" d="M119 567l10 78q135 -12 260 -12q121 0 178.5 42t71.5 140q10 70 -23.5 111t-148.5 41h-178l10 75l172 2q186 4 205 166q10 76 -27 101.5t-153 25.5q-139 0 -248 -10l-4 76q135 20 260 20q170 0 231.5 -44t44.5 -156q-24 -186 -178 -209l-10 -4q172 -25 151 -219 q-16 -129 -89.5 -186.5t-237.5 -57.5q-113 0 -297 20zM391 0l1139 1413h100l-1138 -1413h-101zM1096.5 248q-21.5 35 9.5 88l348 512h102l-339 -506q-12 -18 -5 -32.5t31 -14.5h346l35 252l39 139h80l-55 -391h112l-12 -72l-113 -10l-28 -213h-99l29 213h-408 q-51 0 -72.5 35z" />
<glyph unicode="&#xbf;" horiz-adv-x="1013" d="M-10 -119q10 84 59 156t111.5 127t126 112.5t116 137.5t66.5 176l111 -4q-14 -104 -62.5 -192.5t-108 -147t-120 -111.5t-106.5 -115.5t-56 -132.5q-18 -113 43 -165t213 -52q233 0 412 23l6 -94q-16 -2 -73.5 -12.5t-78 -12.5t-70 -7t-100.5 -7t-119 -2q-203 0 -298 85 t-72 238zM496 850l16 119q6 47 51 47h37q53 0 47 -53l-16 -117q-6 -49 -53 -49h-37q-53 0 -45 53z" />
<glyph unicode="&#xc0;" horiz-adv-x="1253" d="M-55 0l665 1378q14 35 56 35h153q18 0 32.5 -12t16.5 -29l281 -1372h-135l-90 467h-617l-219 -467h-143zM365 586h536l-117 604q-4 20 -10 59t-8 60h-61q-6 -12 -26 -55.5t-30 -63.5zM465 1763l76 95l317 -302l-51 -59z" />
<glyph unicode="&#xc1;" horiz-adv-x="1253" d="M-55 0l665 1378q14 35 56 35h153q18 0 32.5 -12t16.5 -29l281 -1372h-135l-90 467h-617l-219 -467h-143zM365 586h536l-117 604q-4 20 -10 59t-8 60h-61q-6 -12 -26 -55.5t-30 -63.5zM645 1559l375 301l67 -101l-397 -262z" />
<glyph unicode="&#xc2;" horiz-adv-x="1253" d="M-55 0l665 1378q14 35 56 35h153q18 0 32.5 -12t16.5 -29l281 -1372h-135l-90 467h-617l-219 -467h-143zM365 586h536l-117 604q-4 20 -10 59t-8 60h-61q-6 -12 -26 -55.5t-30 -63.5zM449 1571l305 252h94l252 -260l-51 -54l-242 209h-19l-301 -207z" />
<glyph unicode="&#xc3;" horiz-adv-x="1253" d="M-55 0l665 1378q14 35 56 35h153q18 0 32.5 -12t16.5 -29l281 -1372h-135l-90 467h-617l-219 -467h-143zM365 586h536l-117 604q-4 20 -10 59t-8 60h-61q-6 -12 -26 -55.5t-30 -63.5zM457 1579q6 109 56 164t124 49q66 -6 146.5 -61.5t134.5 -61.5q61 -6 91 21.5t40 93.5 l63 -6q-4 -104 -53 -157.5t-125 -47.5q-78 6 -160 62.5t-123 60.5q-113 10 -131 -123z" />
<glyph unicode="&#xc4;" horiz-adv-x="1253" d="M-55 0l665 1378q14 35 56 35h153q18 0 32.5 -12t16.5 -29l281 -1372h-135l-90 467h-617l-219 -467h-143zM365 586h536l-117 604q-4 20 -10 59t-8 60h-61q-6 -12 -26 -55.5t-30 -63.5zM539 1618l16 113q6 41 47 41h39q43 0 37 -41l-19 -111q-2 -41 -43 -41h-43 q-41 0 -34 39zM891 1618l16 113q6 41 45 41h41q43 0 37 -41l-18 -111q-2 -41 -43 -41h-43q-41 0 -35 39z" />
<glyph unicode="&#xc5;" horiz-adv-x="1253" d="M-55 0l665 1378q14 35 56 35h153q18 0 32.5 -12t16.5 -29l281 -1372h-135l-90 467h-617l-219 -467h-143zM365 586h536l-117 604q-4 20 -10 59t-8 60h-61q-6 -12 -26 -55.5t-30 -63.5zM573 1679q10 84 72 143.5t154 59.5q94 0 150.5 -61.5t45.5 -153.5 q-12 -84 -72.5 -142.5t-152.5 -58.5q-94 0 -150.5 61.5t-46.5 151.5zM651 1673q-6 -61 28 -98t91 -37q59 0 100 40t48 99q6 57 -27 95t-92.5 38t-100.5 -39t-47 -98z" />
<glyph unicode="&#xc6;" horiz-adv-x="1861" d="M-78 0l912 1210q90 121 185 162t255 41q381 0 592 -10l-17 -103h-532q-147 0 -170 -151l-49 -346h598l-13 -107h-600l-59 -436q-23 -147 123 -147h536l-6 -103q-223 -12 -555 -12q-119 0 -182 70.5t-45 187.5l33 238h-490l-370 -494h-146zM526 608h418l78 559 q6 45 31.5 88t58.5 60h-8q-76 -37 -154 -137z" />
<glyph unicode="&#xc7;" horiz-adv-x="1153" d="M152 713q55 401 196 563t438 162q213 0 375 -39l-24 -101q-150 18 -351 19q-233 0 -339.5 -130t-157.5 -487q-47 -342 19.5 -473t289.5 -131q219 -2 395 23l11 -101q-166 -43 -406 -43q-299 0 -401.5 171t-44.5 567zM322 -487l24 71q88 -2 153.5 44t78.5 118 q6 43 -15.5 57.5t-93.5 16.5l14 63q109 10 157 -21.5t34 -117.5q-20 -119 -117.5 -184.5t-234.5 -46.5z" />
<glyph unicode="&#xc8;" horiz-adv-x="1136" d="M127 256l131 930q14 106 86 167.5t188 61.5q416 0 607 -12l-19 -103h-569q-145 0 -164 -151l-49 -348h633l-15 -105h-632l-60 -438q-23 -145 123 -145h565v-103q-188 -12 -583 -12q-131 0 -194.5 69.5t-47.5 188.5zM463 1810l76 93l317 -301l-51 -60z" />
<glyph unicode="&#xc9;" horiz-adv-x="1136" d="M127 256l131 930q14 106 86 167.5t188 61.5q416 0 607 -12l-19 -103h-569q-145 0 -164 -151l-49 -348h633l-15 -105h-632l-60 -438q-23 -145 123 -145h565v-103q-188 -12 -583 -12q-131 0 -194.5 69.5t-47.5 188.5zM641 1604l377 301l65 -101l-397 -262z" />
<glyph unicode="&#xca;" horiz-adv-x="1136" d="M127 256l131 930q14 106 86 167.5t188 61.5q416 0 607 -12l-19 -103h-569q-145 0 -164 -151l-49 -348h633l-15 -105h-632l-60 -438q-23 -145 123 -145h565v-103q-188 -12 -583 -12q-131 0 -194.5 69.5t-47.5 188.5zM444 1616l308 254h92l252 -260l-49 -54l-242 207h-19 l-301 -207z" />
<glyph unicode="&#xcb;" horiz-adv-x="1136" d="M127 256l131 930q14 106 86 167.5t188 61.5q416 0 607 -12l-19 -103h-569q-145 0 -164 -151l-49 -348h633l-15 -105h-632l-60 -438q-23 -145 123 -145h565v-103q-188 -12 -583 -12q-131 0 -194.5 69.5t-47.5 188.5zM537 1663l16 113q6 41 45 41h41q43 0 37 -41l-19 -111 q-2 -41 -43 -41h-43q-41 0 -34 39zM887 1663l18 113q6 41 45 41h41q41 0 35 -41l-16 -111q-2 -41 -43 -41h-43q-39 0 -37 39z" />
<glyph unicode="&#xcc;" horiz-adv-x="512" d="M88 1763l76 95l317 -302l-51 -59zM104 0l199 1413h135l-198 -1413h-136z" />
<glyph unicode="&#xcd;" horiz-adv-x="512" d="M104 0l199 1413h135l-198 -1413h-136zM266 1559l377 301l68 -101l-400 -262z" />
<glyph unicode="&#xce;" horiz-adv-x="512" d="M72 1571l305 252h92l252 -260l-49 -54l-242 209h-18l-301 -207zM104 0l199 1413h135l-198 -1413h-136z" />
<glyph unicode="&#xcf;" horiz-adv-x="512" d="M104 0l199 1413h135l-198 -1413h-136zM162 1618l16 113q6 41 45 41h41q43 0 37 -41l-18 -111q-2 -41 -43 -41h-43q-41 0 -35 39zM512 1618l18 113q6 41 45 41h41q43 0 37 -41l-18 -111q-2 -41 -43 -41h-43q-39 0 -37 39z" />
<glyph unicode="&#xd0;" horiz-adv-x="1353" d="M57 715l11 80h149l86 618q250 18 465 19q311 0 416.5 -163t48.5 -569q-31 -221 -79 -359t-130 -219t-185.5 -110.5t-263.5 -29.5q-209 0 -471 18l101 715h-148zM254 104q205 -4 319 -4q170 0 267.5 51.5t158 181.5t95.5 380q51 352 -18.5 477t-309.5 125q-23 0 -342 -6 l-74 -514h336l-12 -80h-334z" />
<glyph unicode="&#xd1;" horiz-adv-x="1429" d="M104 0l191 1360q8 53 61 53h129q45 0 62 -47l391 -1049q43 -121 66 -192h45q6 66 22 197l152 1091h133l-193 -1360q-6 -53 -59 -53h-135q-41 0 -60 47l-401 1075q-43 117 -55 166h-41q-6 -88 -19 -176l-153 -1112h-136zM553 1579q8 109 58.5 164t123.5 49 q66 -6 147 -61.5t134 -61.5q59 -6 90 22.5t41 92.5l63 -6q-4 -104 -53 -157.5t-125 -47.5q-78 6 -159.5 62.5t-122.5 60.5q-114 10 -132 -123z" />
<glyph unicode="&#xd2;" d="M152 713q55 403 196.5 564t442.5 161q297 0 401 -167t47 -571q-55 -406 -196.5 -565.5t-438.5 -159.5t-402.5 166t-49.5 572zM289 700q-47 -342 21.5 -474t295.5 -132q229 0 337 134t157 485q51 346 -17 476t-297 130q-233 0 -339.5 -133t-157.5 -486zM518 1763l76 95 l317 -302l-51 -59z" />
<glyph unicode="&#xd3;" d="M152 713q55 403 196.5 564t442.5 161q297 0 401 -167t47 -571q-55 -406 -196.5 -565.5t-438.5 -159.5t-402.5 166t-49.5 572zM289 700q-47 -342 21.5 -474t295.5 -132q229 0 337 134t157 485q51 346 -17 476t-297 130q-233 0 -339.5 -133t-157.5 -486zM696 1559l377 301 l66 -101l-398 -262z" />
<glyph unicode="&#xd4;" d="M152 713q55 403 196.5 564t442.5 161q297 0 401 -167t47 -571q-55 -406 -196.5 -565.5t-438.5 -159.5t-402.5 166t-49.5 572zM289 700q-47 -342 21.5 -474t295.5 -132q229 0 337 134t157 485q51 346 -17 476t-297 130q-233 0 -339.5 -133t-157.5 -486zM500 1571l307 252 h92l252 -260l-51 -54l-240 209h-18l-301 -207z" />
<glyph unicode="&#xd5;" d="M152 713q55 403 196.5 564t442.5 161q297 0 401 -167t47 -571q-55 -406 -196.5 -565.5t-438.5 -159.5t-402.5 166t-49.5 572zM289 700q-47 -342 21.5 -474t295.5 -132q229 0 337 134t157 485q51 346 -17 476t-297 130q-233 0 -339.5 -133t-157.5 -486zM508 1579 q8 109 58 164t124 49q66 -6 147 -61.5t134 -61.5q113 -12 129 115l65 -6q-6 -104 -54 -157.5t-124 -47.5q-78 6 -160 62.5t-122 60.5q-114 10 -132 -123z" />
<glyph unicode="&#xd6;" d="M152 713q55 403 196.5 564t442.5 161q297 0 401 -167t47 -571q-55 -406 -196.5 -565.5t-438.5 -159.5t-402.5 166t-49.5 572zM289 700q-47 -342 21.5 -474t295.5 -132q229 0 337 134t157 485q51 346 -17 476t-297 130q-233 0 -339.5 -133t-157.5 -486zM590 1618l18 113 q6 41 45 41h41q41 0 35 -41l-16 -111q-2 -41 -43 -41h-43q-39 0 -37 39zM942 1618l19 113q6 41 45 41h41q41 0 34 -41l-16 -111q-6 -41 -45 -41h-41q-39 0 -37 39z" />
<glyph unicode="&#xd7;" horiz-adv-x="1075" d="M98 309l359 285l-273 283l74 73l281 -291l376 302l62 -87l-365 -290l275 -283l-74 -74l-283 291l-370 -295z" />
<glyph unicode="&#xd8;" d="M152 713q55 403 196 564t443 161q172 0 272 -49l88 145l70 -39l-93 -149q180 -154 111 -646q-55 -406 -196.5 -565.5t-438.5 -159.5q-176 0 -276 52l-88 -144l-68 41l90 146q-178 156 -110 643zM289 700q-51 -385 45 -510l661 1088q-74 41 -209 41q-233 0 -339.5 -133 t-157.5 -486zM395 137q76 -43 211 -43q229 0 337 134t157 485q57 393 -43 514z" />
<glyph unicode="&#xd9;" horiz-adv-x="1361" d="M170 539l123 874h135l-125 -881q-33 -246 33.5 -342t267.5 -96q205 0 304.5 99.5t131.5 345.5l123 874h135l-124 -881q-43 -303 -172.5 -430t-393.5 -127q-272 0 -376.5 131.5t-61.5 432.5zM516 1763l76 95l317 -302l-51 -59z" />
<glyph unicode="&#xda;" horiz-adv-x="1361" d="M170 539l123 874h135l-125 -881q-33 -246 33.5 -342t267.5 -96q205 0 304.5 99.5t131.5 345.5l123 874h135l-124 -881q-43 -303 -172.5 -430t-393.5 -127q-272 0 -376.5 131.5t-61.5 432.5zM694 1559l377 301l66 -101l-398 -262z" />
<glyph unicode="&#xdb;" horiz-adv-x="1361" d="M170 539l123 874h135l-125 -881q-33 -246 33.5 -342t267.5 -96q205 0 304.5 99.5t131.5 345.5l123 874h135l-124 -881q-43 -303 -172.5 -430t-393.5 -127q-272 0 -376.5 131.5t-61.5 432.5zM498 1571l307 252h92l252 -260l-51 -54l-240 209h-18l-301 -207z" />
<glyph unicode="&#xdc;" horiz-adv-x="1361" d="M170 539l123 874h135l-125 -881q-33 -246 33.5 -342t267.5 -96q205 0 304.5 99.5t131.5 345.5l123 874h135l-124 -881q-43 -303 -172.5 -430t-393.5 -127q-272 0 -376.5 131.5t-61.5 432.5zM588 1618l18 113q6 41 45 41h41q41 0 35 -41l-16 -111q-2 -41 -43 -41h-43 q-39 0 -37 39zM940 1618l18 113q7 41 46 41h40q41 0 35 -41l-16 -111q-6 -41 -45 -41h-41q-39 0 -37 39z" />
<glyph unicode="&#xdd;" horiz-adv-x="1134" d="M137 1413h137l236 -631q25 -66 47 -151h14q25 53 88 157l412 625h148l-603 -907l-69 -506h-135l71 510zM573 1559l377 301l66 -101l-398 -262z" />
<glyph unicode="&#xde;" horiz-adv-x="1202" d="M106 0l160 1137l39 276h133l-37 -266q92 6 334 6q238 0 327 -96t54 -346t-139.5 -339t-335.5 -89q-221 0 -358 16l-43 -299h-134zM297 399h330q176 2 252.5 67.5t103.5 256.5q25 186 -28.5 249.5t-223.5 63.5q-262 0 -346 -2z" />
<glyph unicode="&#xdf;" horiz-adv-x="1357" d="M-252 -406l19 97h157q102 0 149.5 42t63.5 150l144 1006h-183l15 92l182 10l16 115q16 119 55.5 193.5t108 111.5t139 48t179.5 11q254 0 351 -56t81 -204q-8 -92 -61.5 -151.5t-162.5 -112.5q-16 -6 -54 -22.5t-53 -22.5t-43 -20.5t-40 -25.5t-28.5 -28.5t-24.5 -36 t-10 -42.5q-8 -45 16.5 -76t87.5 -66l223 -123q94 -53 129 -107t23 -157q-18 -145 -111.5 -193.5t-279.5 -48.5q-160 0 -322 23l16 98q174 -12 293 -10q139 2 200.5 30.5t72.5 117.5q6 47 -10.5 81.5t-34 47t-64.5 41.5l-225 122q-80 47 -115 100.5t-24 127.5 q10 92 74.5 142t203.5 110q14 6 21 8q43 23 66.5 36t52 37.5t44 55.5t17.5 72q6 76 -52.5 110.5t-238.5 34.5q-195 0 -272.5 -56.5t-100.5 -218.5l-172 -1222q-23 -150 -96.5 -216.5t-216.5 -66.5q-88 0 -205 12z" />
<glyph unicode="&#xe0;" horiz-adv-x="1167" d="M119 504q25 164 60.5 264t99 155.5t141.5 75t201 19.5q186 0 432 -41l-140 -977h-100l18 223q-98 -113 -220 -180.5t-242 -67.5q-182 0 -237.5 120t-12.5 409zM241.5 175.5q28.5 -85.5 147.5 -85.5q200 0 442 246l80 563q-217 8 -254 8q-94 0 -152.5 -10t-103.5 -32.5 t-72.5 -74t-46 -118t-34.5 -178.5q-35 -233 -6.5 -318.5zM369 1395l75 92l318 -301l-51 -60z" />
<glyph unicode="&#xe1;" horiz-adv-x="1167" d="M119 504q25 164 60.5 264t99 155.5t141.5 75t201 19.5q186 0 432 -41l-140 -977h-100l18 223q-98 -113 -220 -180.5t-242 -67.5q-182 0 -237.5 120t-12.5 409zM241.5 175.5q28.5 -85.5 147.5 -85.5q200 0 442 246l80 563q-217 8 -254 8q-94 0 -152.5 -10t-103.5 -32.5 t-72.5 -74t-46 -118t-34.5 -178.5q-35 -233 -6.5 -318.5zM549 1190l375 299l67 -100l-397 -263z" />
<glyph unicode="&#xe2;" horiz-adv-x="1167" d="M119 504q25 164 60.5 264t99 155.5t141.5 75t201 19.5q186 0 432 -41l-140 -977h-100l18 223q-98 -113 -220 -180.5t-242 -67.5q-182 0 -237.5 120t-12.5 409zM241.5 175.5q28.5 -85.5 147.5 -85.5q200 0 442 246l80 563q-217 8 -254 8q-94 0 -152.5 -10t-103.5 -32.5 t-72.5 -74t-46 -118t-34.5 -178.5q-35 -233 -6.5 -318.5zM352 1200l305 254h95l252 -260l-52 -53l-241 207h-17l-303 -205z" />
<glyph unicode="&#xe3;" horiz-adv-x="1167" d="M119 504q25 164 60.5 264t99 155.5t141.5 75t201 19.5q186 0 432 -41l-140 -977h-100l18 223q-98 -113 -220 -180.5t-242 -67.5q-182 0 -237.5 120t-12.5 409zM241.5 175.5q28.5 -85.5 147.5 -85.5q200 0 442 246l80 563q-217 8 -254 8q-94 0 -152.5 -10t-103.5 -32.5 t-72.5 -74t-46 -118t-34.5 -178.5q-35 -233 -6.5 -318.5zM360 1208q6 109 56.5 164t124.5 49q66 -6 146.5 -61t133.5 -62q61 -6 91 22.5t40 94.5l66 -6q-6 -104 -55.5 -158.5t-124.5 -48.5q-78 6 -161 62.5t-122 62.5q-59 6 -90 -24.5t-41 -100.5z" />
<glyph unicode="&#xe4;" horiz-adv-x="1167" d="M119 504q25 164 60.5 264t99 155.5t141.5 75t201 19.5q186 0 432 -41l-140 -977h-100l18 223q-98 -113 -220 -180.5t-242 -67.5q-182 0 -237.5 120t-12.5 409zM241.5 175.5q28.5 -85.5 147.5 -85.5q200 0 442 246l80 563q-217 8 -254 8q-94 0 -152.5 -10t-103.5 -32.5 t-72.5 -74t-46 -118t-34.5 -178.5q-35 -233 -6.5 -318.5zM442 1247l17 113q6 41 47 41h41q41 0 35 -41l-17 -111q-6 -41 -45 -41h-43q-41 0 -35 39zM795 1247l16 113q6 41 47 41h39q43 0 37 -41l-19 -111q-2 -41 -43 -41h-43q-41 0 -34 39z" />
<glyph unicode="&#xe5;" horiz-adv-x="1167" d="M119 504q25 164 60.5 264t99 155.5t141.5 75t201 19.5q186 0 432 -41l-140 -977h-100l18 223q-98 -113 -220 -180.5t-242 -67.5q-182 0 -237.5 120t-12.5 409zM241.5 175.5q28.5 -85.5 147.5 -85.5q200 0 442 246l80 563q-217 8 -254 8q-94 0 -152.5 -10t-103.5 -32.5 t-72.5 -74t-46 -118t-34.5 -178.5q-35 -233 -6.5 -318.5zM477 1311q10 84 71.5 142t153.5 58q94 0 150.5 -61t46.5 -152q-12 -84 -72.5 -142t-152.5 -58q-96 0 -151.5 60.5t-45.5 152.5zM555 1302.5q-6 -59.5 27.5 -96.5t91.5 -37q59 0 100 39t47 101q6 57 -26.5 94t-92 37 t-100.5 -39t-47 -98.5z" />
<glyph unicode="&#xe6;" horiz-adv-x="1787" d="M115 504q25 164 61.5 264t100 155.5t139.5 75t196 19.5q201 0 441 -45q102 45 282 45q217 0 303 -75t54 -238q-25 -133 -107 -190.5t-254 -74.5l-405 -39q-12 -184 55.5 -249.5t235.5 -65.5q145 0 358 27l10 -88q-135 -49 -395 -50q-170 0 -264.5 57.5t-122.5 180.5 q-199 -238 -449 -238q-174 0 -227 125t-12 404zM239.5 178.5q26.5 -88.5 139.5 -88.5q190 0 412 225q-4 88 12 199q39 268 137 377q-242 16 -293 16q-215 0 -287.5 -76.5t-111.5 -336.5q-35 -227 -8.5 -315.5zM936 502l395 39q113 12 162 48t70 126q25 121 -32.5 156.5 t-205.5 35.5q-129 0 -199.5 -28.5t-116.5 -113.5t-71 -255z" />
<glyph unicode="&#xe7;" horiz-adv-x="985" d="M106 502q39 285 158 400.5t371 115.5q182 0 303 -45l-23 -84q-109 16 -260 16q-201 0 -292 -86t-121 -327q-33 -240 28.5 -322t255.5 -82q174 0 295 23l10 -91q-147 -45 -325 -45q-258 0 -349 121t-51 406zM227 -487l25 71q88 -2 153.5 44t77.5 118q6 43 -15 57.5 t-93 16.5l14 63q109 10 157 -21.5t34 -117.5q-20 -119 -117.5 -184.5t-235.5 -46.5z" />
<glyph unicode="&#xe8;" horiz-adv-x="1091" d="M109 514q41 295 157.5 399.5t374.5 104.5q215 0 302 -75t54 -238q-27 -133 -107.5 -190.5t-252.5 -74.5l-408 -39q-12 -184 55.5 -249.5t235.5 -65.5q148 0 365 27l10 -88q-141 -49 -399 -50q-250 0 -339 126t-48 413zM242 502l395 39q113 12 162 48t67 126 q27 121 -30.5 156.5t-204.5 35.5q-98 0 -157.5 -14t-108 -57t-76 -120t-47.5 -206v-8zM352 1395l76 92l317 -301l-51 -60z" />
<glyph unicode="&#xe9;" horiz-adv-x="1091" d="M109 514q41 295 157.5 399.5t374.5 104.5q215 0 302 -75t54 -238q-27 -133 -107.5 -190.5t-252.5 -74.5l-408 -39q-12 -184 55.5 -249.5t235.5 -65.5q148 0 365 27l10 -88q-141 -49 -399 -50q-250 0 -339 126t-48 413zM242 502l395 39q113 12 162 48t67 126 q27 121 -30.5 156.5t-204.5 35.5q-98 0 -157.5 -14t-108 -57t-76 -120t-47.5 -206v-8zM532 1190l375 299l68 -100l-397 -263z" />
<glyph unicode="&#xea;" horiz-adv-x="1091" d="M109 514q41 295 157.5 399.5t374.5 104.5q215 0 302 -75t54 -238q-27 -133 -107.5 -190.5t-252.5 -74.5l-408 -39q-12 -184 55.5 -249.5t235.5 -65.5q148 0 365 27l10 -88q-141 -49 -399 -50q-250 0 -339 126t-48 413zM242 502l395 39q113 12 162 48t67 126 q27 121 -30.5 156.5t-204.5 35.5q-98 0 -157.5 -14t-108 -57t-76 -120t-47.5 -206v-8zM336 1200l305 254h94l250 -260l-49 -53l-242 207h-18l-301 -205z" />
<glyph unicode="&#xeb;" horiz-adv-x="1091" d="M109 514q41 295 157.5 399.5t374.5 104.5q215 0 302 -75t54 -238q-27 -133 -107.5 -190.5t-252.5 -74.5l-408 -39q-12 -184 55.5 -249.5t235.5 -65.5q148 0 365 27l10 -88q-141 -49 -399 -50q-250 0 -339 126t-48 413zM242 502l395 39q113 12 162 48t67 126 q27 121 -30.5 156.5t-204.5 35.5q-98 0 -157.5 -14t-108 -57t-76 -120t-47.5 -206v-8zM426 1247l16 113q6 41 47 41h39q43 0 37 -41l-18 -111q-2 -41 -43 -41h-43q-41 0 -35 39zM778 1247l17 113q6 41 45 41h41q43 0 37 -41l-19 -111q-2 -41 -43 -41h-43q-41 0 -35 39z" />
<glyph unicode="&#xec;" horiz-adv-x="483" d="M23 1395l75 92l318 -301l-51 -60zM92 0l141 991h129l-139 -991h-131z" />
<glyph unicode="&#xed;" horiz-adv-x="483" d="M92 0l141 991h129l-139 -991h-131zM201 1190l377 299l67 -100l-399 -263z" />
<glyph unicode="&#xee;" horiz-adv-x="483" d="M6 1200l305 254h92l252 -260l-49 -53l-241 207h-19l-301 -205zM92 0l141 991h129l-139 -991h-131z" />
<glyph unicode="&#xef;" horiz-adv-x="483" d="M92 0l141 991h129l-139 -991h-131zM96 1247l17 113q6 41 45 41h41q43 0 37 -41l-19 -111q-2 -41 -43 -41h-43q-41 0 -35 39zM446 1247l19 113q6 41 45 41h41q43 0 37 -41l-19 -111q-2 -41 -43 -41h-43q-39 0 -37 39z" />
<glyph unicode="&#xf0;" horiz-adv-x="1130" d="M100 457q63 459 461 458q201 0 309 -124q2 287 -131 419l-190 -127l-37 58l170 116q-119 82 -336 78l21 95q260 8 413 -107l181 123l36 -60l-161 -108q215 -215 149 -709q-18 -141 -48 -239.5t-86 -183.5t-151.5 -128t-230.5 -43q-225 0 -313 117t-56 365zM236 444 q-29 -195 29 -276.5t210 -81.5q184 0 265 121t116 387q8 76 10 106q-104 104 -284 105q-162 0 -242 -92t-104 -269z" />
<glyph unicode="&#xf1;" horiz-adv-x="1175" d="M84 0l141 991h103l-21 -225q287 252 492 252q131 0 192.5 -72t42.5 -205l-106 -741h-129l100 715q14 104 -17.5 147t-119.5 43q-94 0 -195.5 -56t-259.5 -181l-92 -668h-131zM354 1208q8 111 57.5 165t125.5 48q66 -6 146.5 -61t133.5 -62q113 -12 131 117l64 -6 q-4 -104 -53.5 -158.5t-124.5 -48.5q-78 6 -161 62.5t-122 62.5q-59 6 -90 -24.5t-41 -100.5z" />
<glyph unicode="&#xf2;" horiz-adv-x="1150" d="M106 502q39 283 156 399.5t364.5 116.5t339 -122t50.5 -407q-39 -283 -156 -398.5t-362 -115.5q-250 0 -340 120t-52 407zM242 489q-33 -231 22 -317t234 -86q182 0 267 90t118 326q33 231 -22.5 317t-233.5 86q-182 0 -267.5 -89t-117.5 -327zM354 1395l74 92l317 -301 l-49 -60z" />
<glyph unicode="&#xf3;" horiz-adv-x="1150" d="M106 502q39 283 156 399.5t364.5 116.5t339 -122t50.5 -407q-39 -283 -156 -398.5t-362 -115.5q-250 0 -340 120t-52 407zM242 489q-33 -231 22 -317t234 -86q182 0 267 90t118 326q33 231 -22.5 317t-233.5 86q-182 0 -267.5 -89t-117.5 -327zM532 1190l377 299l66 -100 l-397 -263z" />
<glyph unicode="&#xf4;" horiz-adv-x="1150" d="M106 502q39 283 156 399.5t364.5 116.5t339 -122t50.5 -407q-39 -283 -156 -398.5t-362 -115.5q-250 0 -340 120t-52 407zM242 489q-33 -231 22 -317t234 -86q182 0 267 90t118 326q33 231 -22.5 317t-233.5 86q-182 0 -267.5 -89t-117.5 -327zM336 1200l307 254h92 l252 -260l-51 -53l-242 207h-16l-303 -205z" />
<glyph unicode="&#xf5;" horiz-adv-x="1150" d="M106 502q39 283 156 399.5t364.5 116.5t339 -122t50.5 -407q-39 -283 -156 -398.5t-362 -115.5q-250 0 -340 120t-52 407zM242 489q-33 -231 22 -317t234 -86q182 0 267 90t118 326q33 231 -22.5 317t-233.5 86q-182 0 -267.5 -89t-117.5 -327zM344 1208q8 111 57.5 165 t122.5 48q66 -6 147 -61t134 -62q117 -12 131 117l65 -6q-6 -104 -55 -158.5t-125 -48.5t-158.5 62.5t-123.5 62.5q-59 6 -89 -24.5t-40 -100.5z" />
<glyph unicode="&#xf6;" horiz-adv-x="1150" d="M106 502q39 283 156 399.5t364.5 116.5t339 -122t50.5 -407q-39 -283 -156 -398.5t-362 -115.5q-250 0 -340 120t-52 407zM242 489q-33 -231 22 -317t234 -86q182 0 267 90t118 326q33 231 -22.5 317t-233.5 86q-182 0 -267.5 -89t-117.5 -327zM426 1247l18 113 q6 41 45 41h41q41 0 35 -41l-16 -111q-6 -41 -45 -41h-41q-39 0 -37 39zM778 1247l17 113q6 41 47 41h41q41 0 35 -41l-17 -111q-6 -41 -45 -41h-43q-41 0 -35 39z" />
<glyph unicode="&#xf7;" horiz-adv-x="1177" d="M141 555l15 100h882l-14 -100h-883zM463 203l16 108q6 47 51 47h39q53 0 47 -53l-18 -108q-2 -47 -53 -47h-37q-51 0 -45 53zM559 901l16 109q7 49 54 49h37q53 -2 47 -55l-17 -109q-6 -47 -53 -47h-37q-53 0 -47 53z" />
<glyph unicode="&#xf8;" horiz-adv-x="1150" d="M106 502q39 283 156 399.5t365 116.5q123 0 202 -27l89 146l63 -37l-86 -139q172 -104 121 -472q-39 -283 -156 -398.5t-362 -115.5q-113 0 -187 21l-86 -139l-63 34l80 132q-98 51 -131 166.5t-5 312.5zM242 489q-41 -288 63 -362l461 762q-49 16 -139 16 q-182 0 -267.5 -89t-117.5 -327zM373 98q53 -12 125 -12q182 0 267 90t118 326q38 274 -54 352z" />
<glyph unicode="&#xf9;" horiz-adv-x="1153" d="M113 250l104 741h131l-102 -712q-14 -100 19.5 -145.5t123.5 -45.5q94 0 188.5 58.5t243.5 193.5l90 651h129l-139 -991h-100l20 231q-262 -256 -473 -256q-133 0 -193.5 72t-41.5 203zM356 1399l76 94l318 -301l-52 -59z" />
<glyph unicode="&#xfa;" horiz-adv-x="1153" d="M113 250l104 741h131l-102 -712q-14 -100 19.5 -145.5t123.5 -45.5q94 0 188.5 58.5t243.5 193.5l90 651h129l-139 -991h-100l20 231q-262 -256 -473 -256q-133 0 -193.5 72t-41.5 203zM535 1194l376 301l66 -102l-397 -260z" />
<glyph unicode="&#xfb;" horiz-adv-x="1153" d="M113 250l104 741h131l-102 -712q-14 -100 19.5 -145.5t123.5 -45.5q94 0 188.5 58.5t243.5 193.5l90 651h129l-139 -991h-100l20 231q-262 -256 -473 -256q-133 0 -193.5 72t-41.5 203zM338 1206l307 252h92l252 -260l-51 -53l-242 209h-16l-301 -207z" />
<glyph unicode="&#xfc;" horiz-adv-x="1153" d="M113 250l104 741h131l-102 -712q-14 -100 19.5 -145.5t123.5 -45.5q94 0 188.5 58.5t243.5 193.5l90 651h129l-139 -991h-100l20 231q-262 -256 -473 -256q-133 0 -193.5 72t-41.5 203zM428 1253l18 113q6 41 46 41h40q41 0 35 -41l-16 -111q-6 -41 -45 -41h-41 q-39 0 -37 39zM780 1253l19 113q6 41 45 41h41q41 0 35 -41l-17 -111q-6 -41 -45 -41h-41q-39 0 -37 39z" />
<glyph unicode="&#xfd;" horiz-adv-x="1083" d="M76 -334q229 63 411 334h-84q-41 0 -70.5 23.5t-37.5 62.5l-197 905h138l170 -844q10 -43 51 -43h96l47 82q207 367 311 805h136q-115 -473 -332 -841q-158 -276 -298.5 -407.5t-318.5 -166.5zM471 1190l375 299l67 -100l-397 -263z" />
<glyph unicode="&#xfe;" horiz-adv-x="1167" d="M29 -418l260 1852h129l-62 -435q-19 -135 -39 -213l2 -6q96 109 217 172.5t238 63.5q174 0 231.5 -119t16.5 -410q-25 -164 -60.5 -263t-98 -155.5t-139.5 -75t-198 -18.5q-158 0 -313 25q-6 -80 -20 -164l-35 -254h-129zM229 94q145 -8 254 -8q221 0 294 73.5t112 338.5 q35 233 7 318t-146 85q-197 0 -443 -246z" />
<glyph unicode="&#xff;" horiz-adv-x="1083" d="M76 -334q229 63 411 334h-84q-41 0 -70.5 23.5t-37.5 62.5l-197 905h138l170 -844q10 -43 51 -43h96l47 82q207 367 311 805h136q-115 -473 -332 -841q-158 -276 -298.5 -407.5t-318.5 -166.5zM365 1247l16 113q6 41 47 41h39q43 0 37 -41l-19 -111q-2 -41 -43 -41h-43 q-41 0 -34 39zM717 1247l16 113q6 41 45 41h41q43 0 37 -41l-18 -111q-2 -41 -43 -41h-43q-41 0 -35 39z" />
<glyph unicode="&#x152;" horiz-adv-x="1859" d="M152 713q59 410 199.5 567.5t449.5 157.5q176 0 319 -64q66 41 158 41q399 0 586 -12l-19 -103h-551q-68 0 -110.5 -38.5t-50.5 -112.5l-50 -346h611l-15 -107h-610l-59 -438q-23 -145 123 -145h546l-4 -103q-182 -12 -561 -12q-106 0 -170 47q-160 -70 -334 -70 q-315 0 -415.5 161t-42.5 577zM291 700q-49 -342 19.5 -474t303.5 -132q139 0 267 43q-19 49 -9 119l129 930q10 55 33 98q-111 35 -235 35q-240 0 -349.5 -133t-158.5 -486z" />
<glyph unicode="&#x153;" horiz-adv-x="1865" d="M104 502q41 283 158 399.5t363 116.5q287 0 366 -164q61 90 161.5 127t262.5 37q215 0 301 -75t53 -238q-25 -133 -105.5 -190.5t-252.5 -74.5l-407 -39q-12 -180 55 -246.5t237 -66.5q162 0 359 25l10 -88q-137 -49 -397 -50q-285 0 -363 172q-117 -172 -409 -172 q-248 0 -339 120t-53 407zM240 489q-33 -231 22.5 -317t233.5 -86q182 0 267 90t118 326q33 231 -22.5 317t-233.5 86q-182 0 -267.5 -89t-117.5 -327zM1016 502l395 41q113 10 163 47t66 125q25 123 -32.5 156.5t-206.5 33.5q-182 0 -262 -71.5t-119 -296.5z" />
<glyph unicode="&#x178;" horiz-adv-x="1134" d="M137 1413h137l236 -631q25 -66 47 -151h14q25 53 88 157l412 625h148l-603 -907l-69 -506h-135l71 510zM467 1618l18 113q6 41 45 41h41q41 0 35 -41l-16 -111q-6 -41 -45 -41h-41q-39 0 -37 39zM819 1618l19 113q2 41 45 41h41q41 0 34 -41l-16 -111q-6 -41 -45 -41h-41 q-39 0 -37 39z" />
<glyph unicode="&#x2c6;" horiz-adv-x="839" d="M201 1200l305 254h94l250 -260l-49 -53l-242 207h-18l-301 -205z" />
<glyph unicode="&#x2dc;" horiz-adv-x="843" d="M209 1210q6 109 56 164.5t124 48.5q66 -6 146.5 -61t134.5 -62q61 -6 91 22t40 93l65 -4q-6 -104 -55 -158.5t-125 -48.5q-78 6 -161 62.5t-122 62.5q-113 10 -131 -125z" />
<glyph unicode="&#x2000;" horiz-adv-x="952" />
<glyph unicode="&#x2001;" horiz-adv-x="1905" />
<glyph unicode="&#x2002;" horiz-adv-x="952" />
<glyph unicode="&#x2003;" horiz-adv-x="1905" />
<glyph unicode="&#x2004;" horiz-adv-x="635" />
<glyph unicode="&#x2005;" horiz-adv-x="476" />
<glyph unicode="&#x2006;" horiz-adv-x="317" />
<glyph unicode="&#x2007;" horiz-adv-x="317" />
<glyph unicode="&#x2008;" horiz-adv-x="238" />
<glyph unicode="&#x2009;" horiz-adv-x="381" />
<glyph unicode="&#x200a;" horiz-adv-x="105" />
<glyph unicode="&#x2010;" horiz-adv-x="940" d="M137 465l15 102h628l-14 -102h-629z" />
<glyph unicode="&#x2011;" horiz-adv-x="940" d="M137 465l15 102h628l-14 -102h-629z" />
<glyph unicode="&#x2012;" horiz-adv-x="940" d="M137 465l15 102h628l-14 -102h-629z" />
<glyph unicode="&#x2013;" horiz-adv-x="1232" d="M137 465l15 102h919l-14 -102h-920z" />
<glyph unicode="&#x2014;" horiz-adv-x="1859" d="M137 465l15 102h1546l-15 -102h-1546z" />
<glyph unicode="&#x2018;" horiz-adv-x="428" d="M211 1079l18 129q14 119 99 281l63 -23q-39 -121 -59 -229q20 2 30.5 -10.5t8.5 -30.5l-19 -119q-4 -27 -16 -37t-43 -10h-41q-49 0 -41 49z" />
<glyph unicode="&#x2019;" horiz-adv-x="423" d="M217 1034q45 143 59 232q-20 -2 -30 9t-6 32l18 118q4 27 15 36t42 9h43q47 0 41 -49l-18 -127q-18 -127 -98 -280z" />
<glyph unicode="&#x201a;" horiz-adv-x="450" d="M51 -227q45 135 62 229q-18 -2 -29.5 10.5t-9.5 30.5l18 119q6 29 18.5 38t43.5 9h43q49 0 41 -49l-19 -129q-16 -121 -100 -281z" />
<glyph unicode="&#x201c;" horiz-adv-x="712" d="M211 1079l18 129q14 119 99 281l63 -23q-39 -121 -59 -229q20 2 30.5 -10.5t8.5 -30.5l-19 -119q-4 -27 -16 -37t-43 -10h-41q-49 0 -41 49zM496 1079l18 129q14 119 98 281l64 -23q-39 -121 -60 -229q18 2 29.5 -10.5t9.5 -30.5l-18 -119q-6 -27 -18 -37t-41 -10h-43 q-47 0 -39 49z" />
<glyph unicode="&#x201d;" horiz-adv-x="708" d="M217 1034q45 143 59 232q-20 -2 -30 9t-6 32l18 118q4 27 15 36t42 9h43q47 0 41 -49l-18 -127q-18 -127 -98 -280zM502 1034q43 143 59 232q-20 -2 -30.5 9t-6.5 32l17 118q6 27 17 36t42 9h43q47 0 41 -49l-18 -127q-18 -127 -99 -280z" />
<glyph unicode="&#x201e;" horiz-adv-x="731" d="M51 -229q45 143 60 229q-43 0 -37 43l18 119q4 27 16.5 36t43.5 9h41q49 0 40 -49l-18 -127q-18 -127 -98 -281zM336 -229q45 143 59 229q-43 0 -37 43l19 119q4 27 15 36t42 9h43q49 0 41 -49l-18 -127q-18 -127 -99 -281z" />
<glyph unicode="&#x2022;" horiz-adv-x="733" d="M188 541l5 28q12 88 49 119t129 31h22q86 0 118 -37t19 -123l-4 -29q-10 -90 -47 -121.5t-127 -31.5h-22q-90 0 -123 37t-19 127z" />
<glyph unicode="&#x2026;" horiz-adv-x="1671" d="M98 53l17 117q6 49 55 49h45q55 0 45 -53l-16 -119q-6 -47 -54 -47h-45q-53 0 -47 53zM711 53l16 117q6 49 55 49h45q55 0 45 -53l-16 -119q-6 -47 -53 -47h-45q-57 0 -47 53zM1323 53l16 117q7 49 56 49h45q51 0 45 -53l-17 -119q-6 -47 -53 -47h-45q-57 0 -47 53z" />
<glyph unicode="&#x202f;" horiz-adv-x="381" />
<glyph unicode="&#x2039;" horiz-adv-x="604" d="M80 504l4 33l385 399l55 -49l-329 -375l231 -381l-66 -45z" />
<glyph unicode="&#x203a;" horiz-adv-x="604" d="M55 135l332 377l-231 381l65 43l279 -416l-2 -33l-389 -401z" />
<glyph unicode="&#x205f;" horiz-adv-x="476" />
<glyph unicode="&#x20ac;" horiz-adv-x="1304" d="M106 545l13 86h180l10 82q6 47 17 106h-179l13 86h184q66 276 212 404.5t415 128.5q178 0 315 -39l-24 -103q-135 25 -295 21q-197 -4 -310.5 -97.5t-171.5 -314.5h549l-28 -86h-541q0 -6 -8 -51t-13 -70l-8 -67h490l-29 -86h-467q-12 -240 70 -342.5t276 -106.5 q184 -4 334 25l10 -103q-147 -43 -340 -43q-274 0 -389 139.5t-100 430.5h-185z" />
<glyph unicode="&#x2122;" horiz-adv-x="1947" d="M240 1343l10 82h653l-10 -82h-279l-98 -696h-96l96 696h-276zM903 647l137 742q6 37 39 36h105q35 0 39 -34l112 -486q4 -16 10.5 -53t10.5 -55h28q20 55 50 110l245 490q14 28 41 28h109q18 0 28.5 -12t8.5 -31l-70 -735h-90l63 703h-24l-295 -588q-12 -29 -43 -29h-82 q-35 0 -39 35l-137 582h-25l-129 -703h-92z" />
<glyph unicode="&#x25fc;" horiz-adv-x="993" d="M0 0v993h993v-993h-993z" />
<glyph unicode="&#xfb01;" horiz-adv-x="1191" d="M-252 -406l19 97h157q102 0 150.5 42t62.5 150l142 1004h-179l13 94l180 10l26 180q20 150 94 222.5t220 72.5q139 0 244 -12l-9 -96h-194q-109 0 -161 -46t-67 -159l-22 -162h649l-141 -991h-129l125 887h-518l-144 -1022q-41 -283 -301 -283q-96 0 -217 12zM969 1249 l18 121q2 39 45 39h60q47 0 41 -45l-17 -121q-6 -39 -45 -39h-61q-47 0 -41 45z" />
<glyph unicode="&#xfb02;" horiz-adv-x="1318" d="M-252 -406l19 97h157q102 0 150.5 42t62.5 150l142 1004h-179l13 94l180 10l26 180q20 150 94 222.5t220 72.5q414 -4 526 -20l-168 -1217q-18 -141 121 -141h109l6 -84q-49 -20 -162 -20q-111 0 -166 60t-41 167l162 1147h-346q-106 2 -158.5 -45t-69.5 -160l-22 -162 h315l-14 -104h-315l-144 -1022q-41 -283 -301 -283q-96 0 -217 12z" />
</font>
</defs>
</svg>
